Скачать через торрент музыку Paul Cantelon & VA - Everything is Illuminated бесплатно без регистрации torrent

Если у вас наблюдаются проблемы со скриншотами, переходом по ссылками, скачиванием торрентов - проблемы в блокировщике рекламы AdBlock. #хорошегоДня!


Статистика раздачи
Размер:  317 MB   |    Зарегистрирован:  6 лет 9 месяцев   |    .torrent скачан:  42 раза   |   
Раздают:  1  
   
Загрузка...
 
Автор Сообщение

AqvaGen


Everything is Illuminated: Original Motion Picture Soundtrack

Жанр: Classical, Folk, World, & Country, Rock, Stage & Screen
Стиль: Folk Rock, Soundtrack, Punk, Contemporary, Folk
Год выпуска диска: 2005
Производитель диска: Germany
Лейбл: TVT Soundtrax
Каталог#: TV 6740-2
Формат: CD, Album
Music by: Paul Cantelon & Various Artists
Аудио кодек: FLAC
Тип рипа: tracks+.cue
Битрейт аудио: lossless
Продолжительность: 1:02:24.880 (165149208 samples)
Трэклист:
01. Odessa Medley (03:53)
02. Leningrad - Zvezda Rok-N-Rolla (02:09)
03. Csókolom - Amari Szi Amari (03:05)
04. Leningrad - Dikiy Muzhchina (02:37)
05. Prologue / Babushka (04:32)
06. Little Jonathan / The Wall (03:11)
07. Gogol Bordello - Bublitschki (02:02)
08. The Con Artists - Ya-takoy (feat. Pete Miser) (02:42)
09. Leningrad - Malen'kiy Mal'chik (03:15)
10. Tin Hat Trio - Fear of the South (04:03)
11. River of Collections (02:04)
12. Tank Graveyard / Valse de Suzana / Dee-yed (05:31)
13. Sunflowers (01:23)
14. War is Over / eta-Ya (02:35)
15. Trachimbrod / Resurrection / Requiem (11:50)
16. Inside-Out (03:52)
17. Gogol Bordello - Start Wearing Purple (03:43)
 
Exact Audio Copy V0.99 prebeta 4 from 23. January 2008

EAC extraction logfile from 22. November 2008, 10:35

Various / Everything Is Illuminated

Used drive : Memorex DVD16+/-DL4RWlD2 Adapter: 8 ID: 0

Read mode : SecureUtilize accurate stream : YesDefeat audio cache : YesMake use of C2 pointers : No

Read offset correction : 12Overread into Lead-In and Lead-Out : NoFill up missing offset samples with silence : YesDelete leading and trailing silent blocks : NoNull samples used in CRC calculations : YesUsed interface : Native Win32 interface for Win NT & 2000Gap handling : Appended to previous track

Used output format : User Defined EncoderSelected bitrate : 320 kBit/sQuality : HighAdd ID3 tag : NoCommand line compressor : C:\Program Files\Exact Audio Copy\Flac\flac.exeAdditional command line options : -V -8 -T "artist=%a" -T "title=%t" -T "album=%g" -T "date=%y" -T "tracknumber=%n" -T "genre=%m" %s

TOC of the extracted CD

Track | Start | Length | Start sector | End sector --------------------------------------------------------- 1 | 0:00.00 | 3:53.15 | 0 | 17489 2 | 3:53.15 | 2:08.60 | 17490 | 27149 3 | 6:02.00 | 3:04.47 | 27150 | 40996 4 | 9:06.47 | 2:37.33 | 40997 | 52804 5 | 11:44.05 | 4:32.27 | 52805 | 73231 6 | 16:16.32 | 3:10.49 | 73232 | 87530 7 | 19:27.06 | 2:01.40 | 87531 | 96645 8 | 21:28.46 | 2:42.00 | 96646 | 108795 9 | 24:10.46 | 3:14.34 | 108796 | 123379 10 | 27:25.05 | 4:02.45 | 123380 | 141574 11 | 31:27.50 | 2:03.47 | 141575 | 150846 12 | 33:31.22 | 5:30.37 | 150847 | 175633 13 | 39:01.59 | 1:22.68 | 175634 | 181851 14 | 40:24.52 | 2:35.03 | 181852 | 193479 15 | 42:59.55 | 11:50.15 | 193480 | 246744 16 | 54:49.70 | 3:52.21 | 246745 | 264165 17 | 58:42.16 | 3:42.50 | 264166 | 280865

Track 1

Filename C:\Users\Sasha\Music\Paul Cantelon\Everything Is Illuminated Soundtrack (FLAC)\01 - Paul Cantelon - Odessa Medley.wav

Pre-gap length 0:00:02.00

Peak level 98.8 % Track quality 100.0 % Test CRC DD68EF60 Copy CRC DD68EF60 Accurately ripped (confidence 2) [C435DC10] Copy OK

Track 2

Filename C:\Users\Sasha\Music\Paul Cantelon\Everything Is Illuminated Soundtrack (FLAC)\02 - Leningrad - Zvezda Rok-N-Rolla.wav

Pre-gap length 0:00:03.60

Peak level 73.1 % Track quality 100.0 % Test CRC 2459C181 Copy CRC 2459C181 Accurately ripped (confidence 2) [CCC1F89C] Copy OK

Track 3

Filename C:\Users\Sasha\Music\Paul Cantelon\Everything Is Illuminated Soundtrack (FLAC)\03 - Csуkolom - Amari Szi Amari.wav

Pre-gap length 0:00:03.60

Peak level 98.7 % Track quality 99.9 % Test CRC DCF47B62 Copy CRC DCF47B62 Accurately ripped (confidence 2) [72F64F4B] Copy OK

Track 4

Filename C:\Users\Sasha\Music\Paul Cantelon\Everything Is Illuminated Soundtrack (FLAC)\04 - Leningrad - Dikiy Muzhchina.wav

Pre-gap length 0:00:03.60

Peak level 73.1 % Track quality 100.0 % Test CRC 695B593A Copy CRC 695B593A Accurately ripped (confidence 2) [C9F4DDBB] Copy OK

Track 5

Filename C:\Users\Sasha\Music\Paul Cantelon\Everything Is Illuminated Soundtrack (FLAC)\05 - Paul Cantelon - Prologue , Babushka.wav

Pre-gap length 0:00:03.60

Peak level 91.7 % Track quality 100.0 % Test CRC A140BA32 Copy CRC A140BA32 Accurately ripped (confidence 2) [B711A8BC] Copy OK

Track 6

Filename C:\Users\Sasha\Music\Paul Cantelon\Everything Is Illuminated Soundtrack (FLAC)\06 - Paul Cantelon - Little Jonathan , The Wall.wav

Pre-gap length 0:00:02.59

Peak level 98.7 % Track quality 100.0 % Test CRC 399C23F4 Copy CRC 399C23F4 Accurately ripped (confidence 2) [72EC0EBE] Copy OK

Track 7

Filename C:\Users\Sasha\Music\Paul Cantelon\Everything Is Illuminated Soundtrack (FLAC)\07 - Gogol Bordello - Bublitschki.wav

Pre-gap length 0:00:03.65

Peak level 98.7 % Track quality 99.9 % Test CRC E60112EE Copy CRC E60112EE Accurately ripped (confidence 2) [45513D07] Copy OK

Track 8

Filename C:\Users\Sasha\Music\Paul Cantelon\Everything Is Illuminated Soundtrack (FLAC)\08 - The Con Artists - Ya-takoy (feat. Pete Miser).wav

Pre-gap length 0:00:03.60

Peak level 57.8 % Track quality 100.0 % Test CRC 7383ABA6 Copy CRC 7383ABA6 Accurately ripped (confidence 2) [E9C5C459] Copy OK

Track 9

Filename C:\Users\Sasha\Music\Paul Cantelon\Everything Is Illuminated Soundtrack (FLAC)\09 - Leningrad - Malen'kiy Mal'chik.wav

Pre-gap length 0:00:01.60

Peak level 72.1 % Track quality 100.0 % Test CRC 8805406C Copy CRC 8805406C Accurately ripped (confidence 2) [6EED2090] Copy OK

Track 10

Filename C:\Users\Sasha\Music\Paul Cantelon\Everything Is Illuminated Soundtrack (FLAC)\10 - Tin Hat Trio - Fear of the South.wav

Pre-gap length 0:00:03.23

Peak level 81.6 % Track quality 100.0 % Test CRC EC950983 Copy CRC EC950983 Accurately ripped (confidence 2) [B063DA8A] Copy OK

Track 11

Filename C:\Users\Sasha\Music\Paul Cantelon\Everything Is Illuminated Soundtrack (FLAC)\11 - Paul Cantelon - River of Collections.wav

Pre-gap length 0:00:02.60

Peak level 98.7 % Track quality 100.0 % Test CRC D460BF52 Copy CRC D460BF52 Accurately ripped (confidence 2) [9C372F81] Copy OK

Track 12

Filename C:\Users\Sasha\Music\Paul Cantelon\Everything Is Illuminated Soundtrack (FLAC)\12 - Paul Cantelon - Tank Graveyard , Valse de Suzana , Dee-yed.wav

Pre-gap length 0:00:03.43

Peak level 98.7 % Track quality 100.0 % Test CRC 8B0B0E07 Copy CRC 8B0B0E07 Accurately ripped (confidence 2) [800CBD48] Copy OK

Track 13

Filename C:\Users\Sasha\Music\Paul Cantelon\Everything Is Illuminated Soundtrack (FLAC)\13 - Paul Cantelon - Sunflowers.wav

Pre-gap length 0:00:03.43

Peak level 98.7 % Track quality 100.0 % Test CRC D8D272B5 Copy CRC D8D272B5 Accurately ripped (confidence 2) [3641CF1C] Copy OK

Track 14

Filename C:\Users\Sasha\Music\Paul Cantelon\Everything Is Illuminated Soundtrack (FLAC)\14 - Paul Cantelon - War is Over , eta-Ya.wav

Pre-gap length 0:00:02.60

Peak level 98.7 % Track quality 99.9 % Test CRC B0813009 Copy CRC B0813009 Accurately ripped (confidence 2) [BA776701] Copy OK

Track 15

Filename C:\Users\Sasha\Music\Paul Cantelon\Everything Is Illuminated Soundtrack (FLAC)\15 - Paul Cantelon - Trachimbrod , Resurrection , Requiem.wav

Pre-gap length 0:00:02.59

Peak level 98.7 % Track quality 100.0 % Test CRC 25C5B594 Copy CRC 25C5B594 Accurately ripped (confidence 2) [49746EB4] Copy OK

Track 16

Filename C:\Users\Sasha\Music\Paul Cantelon\Everything Is Illuminated Soundtrack (FLAC)\16 - Paul Cantelon - Inside-Out.wav

Pre-gap length 0:00:02.60

Peak level 98.7 % Track quality 100.0 % Test CRC D8516BE1 Copy CRC D8516BE1 Accurately ripped (confidence 2) [DAAC95D2] Copy OK

Track 17

Filename C:\Users\Sasha\Music\Paul Cantelon\Everything Is Illuminated Soundtrack (FLAC)\17 - Gogol Bordello - Start Wearing Purple.wav

Pre-gap length 0:00:03.60

Peak level 71.7 % Track quality 100.0 % Test CRC A4324BE9 Copy CRC A4324BE9 Accurately ripped (confidence 2) [5126194A] Copy OK

All tracks accurately ripped

No errors occurred

End of status report


Трекер:  [ 20-Дек-2010 12:31 ]

  

Скачать .torrent

Размер .torrent файла 14 KB


Размер: 317 MB
Хэш (hash) релиза: b7fe8989a567dd50b535ee50b24c362bafc985a0

Торренты, похожие на Paul Cantelon & VA - Everything is Illuminated скачать торрент

Форум Название Автор Размер S L Добавлен
Саундтреки к фильмам и мультфильмам (mp3) ·· (Soundtrack, Classical, Folk, Rock) Paul Cantelon & VA - Everything Is Illuminated / Свет вокруг - 2005, MP3 (tracks), 320 kbps Galfimbul 151044042144 MB 0 0 1292266198

21:49

13-Дек-10

bot

Топик был перенесен в форум Саундтреки к фильмам и мультфильмам (lossless)

Перенес AqvaGen

Хотите добавить комментарий к записи скачать торрент Paul Cantelon & VA - Everything is Illuminated

!Обратная связь