Скачать через торрент музыку Живая мишень Human Target бесплатно без регистрации torrent

Если у вас наблюдаются проблемы со скриншотами, переходом по ссылками, скачиванием торрентов - проблемы в блокировщике рекламы AdBlock. #хорошегоДня!


Статистика раздачи
Размер:  1002 MB   |    Зарегистрирован:  6 лет 9 месяцев   |    .torrent скачан:  52 раза   |   
Раздают:  1  
   
Загрузка...
 
Автор Сообщение

AqvaGen


Живая мишень / Human Target

Жанр: Score
Композитор: Bear McCreary
Год выпуска диска / сериала: 2010
Страна-производитель диска: США
Издатель (лейбл): La-La Land Records
Номер по каталогу: LLLCD1150

Аудио кодек: FLAC (*.flac)
Тип рипа: tracks+.cue
Битрейт аудио: lossless
Продолжительность: 03:47:11

Источник: CD
Наличие сканов в содержимом раздачи: да
DISC 1

1. Theme from Human Target (Long Version) 1:32
2. Skydive 5:19
3. No Threats 4:16
4. Military Camp Rescue 4:36
5. Motorcycle Escape 5:27
6. Monastery in the Mountains 1:41
7. Paint a Bullseye 2:19
8. The Katherine Walters File 4:29
9. Switching Sides 6:09
10. This is Awkward 2:11
11. The Russian Embassy 3:32
12. The Devil’s Mouth 1:20
13. Ice Cubes 2:05
14. Allyson’s Past 3:05
15. Flipping the Plane 10:54
16. Driving Away :48
17. Airborne and Lethal 3:34
18. Chance’s Old Boss 3:54
19. Old Chance 2:15
20. Skyhook Rescue 7:05
21. Into the West 1:35
Total Time: Disc 1 78:16

DISC 2

1. New York City Arrival 1:51
2. Train Fight 3:32
3. Baptiste 2:37
4. Tango Fight 1:26
5. Maria and Chance 2:34
6. Katherine’s Killer 4:10
7. Confronting Baptiste 8:49
8. Courthouse Brawl 5:07
9. Stop Running 3:06
10. Not a Pacifist :44
11. Bullet Train 1:55
12. Gondola 8:43
13. An Old Life 3:19
14. Lockdown 5:00
15. A Bottle of Japanese Whiskey 1:32
16. Victoria 3:29
17. The New Champion 5:54
18. Emma Barnes 3:08
19. Stephanie’s Ring 1:49
20. Port Yard Deaths 2:52
21. The New Christopher Chance 6:33
22. Theme from Human Target (Short Version) :40
Total Time: Disc 2 79:23

DISC 3 (Bonus Tracks)

1. Flight Attendant Wilson :48
2. Round One 3:24
3. Emma’s Bra 2:24
4. Maria Gallego 1:59
5. Afraid in Alaska 1:23
6. Guerrero and Sergei 2:51
7. Chance Takes the Job :54
8. Tracking Device 3:03
9. The Black Room 1:41
10. Fighting Kendrick Taylor 1:27
11. Bertram 6:59
12. Sparing Guerrero 1:45
13. Scar Stories 3:34
14. Danny’s Killer 2:42
15. Chaos in the Cockpit 5:51
16. A Mistake :50
17. Chance’s Theme (Sketch Version 1) 1:17
18. Chance’s Theme (Sketch Version 2) 1:42
19. Katherine’s Theme (Solo Piano Version) 1:50
20. Theme from Human Target (Alternate Short Version) :42
 
Exact Audio Copy V0.99 prebeta 5 from 4. May 2009

EAC extraction logfile from 6. November 2010, 15:27

Bear McCreary / Human Target (Disc 1)

Used drive : Optiarc DVD RW AD-7241S Adapter: 1 ID: 1

Read mode : SecureUtilize accurate stream : YesDefeat audio cache : YesMake use of C2 pointers : No

Read offset correction : 48Overread into Lead-In and Lead-Out : NoFill up missing offset samples with silence : YesDelete leading and trailing silent blocks : NoNull samples used in CRC calculations : YesUsed interface : Native Win32 interface for Win NT & 2000Gap handling : Appended to previous track

Used output format : User Defined EncoderSelected bitrate : 128 kBit/sQuality : HighAdd ID3 tag : NoCommand line compressor : C:\Program Files (x86)\[pre]Exact Audio Copy\Flac\flac.exeAdditional command line options : -8 -V -T "artist=%a" -T "title=%t" -T "album=%g" -T "date=%y" -T "tracknumber=%n" -T "genre=%m" %s

TOC of the extracted CD

Track | Start | Length | Start sector | End sector --------------------------------------------------------- 1 | 0:00.16 | 1:31.52 | 16 | 6892 2 | 1:31.68 | 5:19.46 | 6893 | 30863 3 | 6:51.39 | 4:17.02 | 30864 | 50140 4 | 11:08.41 | 4:37.09 | 50141 | 70924 5 | 15:45.50 | 5:29.03 | 70925 | 95602 6 | 21:14.53 | 1:41.10 | 95603 | 103187 7 | 22:55.63 | 2:19.13 | 103188 | 113625 8 | 25:15.01 | 4:30.21 | 113626 | 133896 9 | 29:45.22 | 6:09.48 | 133897 | 161619 10 | 35:54.70 | 2:11.42 | 161620 | 171486 11 | 38:06.37 | 3:32.01 | 171487 | 187387 12 | 41:38.38 | 1:21.12 | 187388 | 193474 13 | 42:59.50 | 2:05.25 | 193475 | 202874 14 | 45:05.00 | 3:05.14 | 202875 | 216763 15 | 48:10.14 | 10:53.46 | 216764 | 265784 16 | 59:03.60 | 0:47.71 | 265785 | 269380 17 | 59:51.56 | 3:34.34 | 269381 | 285464 18 | 63:26.15 | 3:54.37 | 285465 | 303051 19 | 67:20.52 | 2:14.46 | 303052 | 313147 20 | 69:35.23 | 7:05.12 | 313148 | 345034 21 | 76:40.35 | 1:35.08 | 345035 | 352167

Track 1

Filename C:\Users\chris\Desktop\Rips\01 - Theme from Human Target (Long Version).wav

Pre-gap length 0:00:02.16

Peak level 98.3 % Track quality 100.0 % Test CRC 26F2F95A Copy CRC 26F2F95A Track not present in AccurateRip database Copy OK

Track 2

Filename C:\Users\chris\Desktop\Rips\02 - Skydive.wav

Peak level 94.4 % Track quality 100.0 % Test CRC 40127B5C Copy CRC 40127B5C Track not present in AccurateRip database Copy OK

Track 3

Filename C:\Users\chris\Desktop\Rips\03 - No Threats.wav

Pre-gap length 0:00:00.67

Peak level 95.9 % Track quality 99.9 % Test CRC 1B6D8BAF Copy CRC 1B6D8BAF Track not present in AccurateRip database Copy OK

Track 4

Filename C:\Users\chris\Desktop\Rips\04 - Military Camp Rescue.wav

Pre-gap length 0:00:01.06

Peak level 94.6 % Track quality 100.0 % Test CRC 6DF00B55 Copy CRC 6DF00B55 Track not present in AccurateRip database Copy OK

Track 5

Filename C:\Users\chris\Desktop\Rips\05 - Motorcycle Escape.wav

Pre-gap length 0:00:01.19

Peak level 99.2 % Track quality 99.9 % Test CRC 681E2907 Copy CRC 681E2907 Track not present in AccurateRip database Copy OK

Track 6

Filename C:\Users\chris\Desktop\Rips\06 - Monastery in the Mountains.wav

Pre-gap length 0:00:01.74

Peak level 83.7 % Track quality 100.0 % Test CRC 5E69A49F Copy CRC 5E69A49F Track not present in AccurateRip database Copy OK

Track 7

Filename C:\Users\chris\Desktop\Rips\07 - Paint a Bullseye.wav

Peak level 84.9 % Track quality 100.0 % Test CRC 22B59639 Copy CRC 22B59639 Track not present in AccurateRip database Copy OK

Track 8

Filename C:\Users\chris\Desktop\Rips\08 - The Katherine Walters File.wav

Peak level 96.4 % Track quality 99.9 % Test CRC B819F1D5 Copy CRC B819F1D5 Track not present in AccurateRip database Copy OK

Track 9

Filename C:\Users\chris\Desktop\Rips\09 - Switching Sides.wav

Pre-gap length 0:00:00.74

Peak level 94.4 % Track quality 100.0 % Test CRC 9DF89BB4 Copy CRC 9DF89BB4 Track not present in AccurateRip database Copy OK

Track 10

Filename C:\Users\chris\Desktop\Rips\10 - This is Awkward.wav

Pre-gap length 0:00:00.74

Peak level 94.4 % Track quality 100.0 % Test CRC AA5624CD Copy CRC AA5624CD Track not present in AccurateRip database Copy OK

Track 11

Filename C:\Users\chris\Desktop\Rips\11 - The Russian Embassy.wav

Pre-gap length 0:00:01.00

Peak level 97.9 % Track quality 100.0 % Test CRC AA721ED7 Copy CRC AA721ED7 Track not present in AccurateRip database Copy OK

Track 12

Filename C:\Users\chris\Desktop\Rips\12 - The Devil's Mouth.wav

Pre-gap length 0:00:00.35

Peak level 94.4 % Track quality 100.0 % Test CRC 5F233FB3 Copy CRC 5F233FB3 Track not present in AccurateRip database Copy OK

Track 13

Filename C:\Users\chris\Desktop\Rips\13 - Ice Cubes.wav

Pre-gap length 0:00:01.02

Peak level 94.4 % Track quality 100.0 % Test CRC DD381646 Copy CRC DD381646 Track not present in AccurateRip database Copy OK

Track 14

Filename C:\Users\chris\Desktop\Rips\14 - Allyson's Past.wav

Pre-gap length 0:00:00.14

Peak level 44.4 % Track quality 100.0 % Test CRC 62132FF9 Copy CRC 62132FF9 Track not present in AccurateRip database Copy OK

Track 15

Filename C:\Users\chris\Desktop\Rips\15 - Flipping the Plane.wav

Pre-gap length 0:00:00.17

Peak level 94.4 % Track quality 100.0 % Test CRC BFFEC0C1 Copy CRC BFFEC0C1 Track not present in AccurateRip database Copy OK

Track 16

Filename C:\Users\chris\Desktop\Rips\16 - Driving Away.wav

Pre-gap length 0:00:00.04

Peak level 94.4 % Track quality 100.0 % Test CRC 7F00A17B Copy CRC 7F00A17B Track not present in AccurateRip database Copy OK

Track 17

Filename C:\Users\chris\Desktop\Rips\17 - Airborne and Lethal.wav

Peak level 99.0 % Track quality 100.0 % Test CRC F8D76920 Copy CRC F8D76920 Track not present in AccurateRip database Copy OK

Track 18

Filename C:\Users\chris\Desktop\Rips\18 - Chance's Old Boss.wav

Peak level 94.4 % Track quality 100.0 % Test CRC F725FCBD Copy CRC F725FCBD Track not present in AccurateRip database Copy OK

Track 19

Filename C:\Users\chris\Desktop\Rips\19 - Old Chance.wav

Peak level 94.4 % Track quality 100.0 % Test CRC EF0E00F6 Copy CRC EF0E00F6 Track not present in AccurateRip database Copy OK

Track 20

Filename C:\Users\chris\Desktop\Rips\20 - Skyhook Rescue.wav

Peak level 96.6 % Track quality 100.0 % Test CRC F8E1C1AE Copy CRC F8E1C1AE Track not present in AccurateRip database Copy OK

Track 21

Filename C:\Users\chris\Desktop\Rips\21 - Into the West.wav

Peak level 94.4 % Track quality 100.0 % Test CRC D9ECDF1B Copy CRC D9ECDF1B Track not present in AccurateRip database Copy OK

None of the tracks are present in the AccurateRip database

No errors occurred

End of status report
 
Exact Audio Copy V0.99 prebeta 5 from 4. May 2009

EAC extraction logfile from 6. November 2010, 16:13

Bear McCreary / Human Target (Disc 2)

Used drive : Optiarc DVD RW AD-7241S Adapter: 1 ID: 1

Read mode : SecureUtilize accurate stream : YesDefeat audio cache : YesMake use of C2 pointers : No

Read offset correction : 48Overread into Lead-In and Lead-Out : NoFill up missing offset samples with silence : YesDelete leading and trailing silent blocks : NoNull samples used in CRC calculations : YesUsed interface : Native Win32 interface for Win NT & 2000Gap handling : Appended to previous track

Used output format : User Defined EncoderSelected bitrate : 128 kBit/sQuality : HighAdd ID3 tag : NoCommand line compressor : C:\Program Files (x86)\[pre]Exact Audio Copy\Flac\flac.exeAdditional command line options : -8 -V -T "artist=%a" -T "title=%t" -T "album=%g" -T "date=%y" -T "tracknumber=%n" -T "genre=%m" %s

TOC of the extracted CD

Track | Start | Length | Start sector | End sector --------------------------------------------------------- 1 | 0:00.00 | 1:52.25 | 0 | 8424 2 | 1:52.25 | 3:33.31 | 8425 | 24430 3 | 5:25.56 | 2:38.71 | 24431 | 36351 4 | 8:04.52 | 1:27.24 | 36352 | 42900 5 | 9:32.01 | 2:34.74 | 42901 | 54524 6 | 12:07.00 | 4:10.23 | 54525 | 73297 7 | 16:17.23 | 8:51.04 | 73298 | 113126 8 | 25:08.27 | 5:08.73 | 113127 | 136299 9 | 30:17.25 | 3:07.68 | 136300 | 150392 10 | 33:25.18 | 0:46.17 | 150393 | 153859 11 | 34:11.35 | 1:56.57 | 153860 | 162616 12 | 36:08.17 | 8:43.49 | 162617 | 201890 13 | 44:51.66 | 3:21.13 | 201891 | 216978 14 | 48:13.04 | 5:02.35 | 216979 | 239663 15 | 53:15.39 | 1:34.26 | 239664 | 246739 16 | 54:49.65 | 3:29.46 | 246740 | 262460 17 | 58:19.36 | 5:56.00 | 262461 | 289160 18 | 64:15.36 | 3:10.21 | 289161 | 303431 19 | 67:25.57 | 1:50.64 | 303432 | 311745 20 | 69:16.46 | 2:52.15 | 311746 | 324660 21 | 72:08.61 | 6:34.07 | 324661 | 354217 22 | 78:42.68 | 0:40.21 | 354218 | 357238

Track 1

Filename C:\Users\chris\Desktop\Rips\01 - New York City Arrival.wav

Pre-gap length 0:00:02.00

Peak level 94.4 % Track quality 100.0 % Test CRC 711E1FFE Copy CRC 711E1FFE Track not present in AccurateRip database Copy OK

Track 2

Filename C:\Users\chris\Desktop\Rips\02 - Train Fight.wav

Pre-gap length 0:00:01.25

Peak level 94.4 % Track quality 100.0 % Test CRC 52583122 Copy CRC 52583122 Track not present in AccurateRip database Copy OK

Track 3

Filename C:\Users\chris\Desktop\Rips\03 - Baptiste.wav

Pre-gap length 0:00:01.03

Peak level 94.8 % Track quality 100.0 % Test CRC 830BE3D4 Copy CRC 830BE3D4 Track not present in AccurateRip database Copy OK

Track 4

Filename C:\Users\chris\Desktop\Rips\04 - Tango Fight.wav

Pre-gap length 0:00:01.74

Peak level 94.4 % Track quality 99.8 % Test CRC 0D299F7A Copy CRC 0D299F7A Track not present in AccurateRip database Copy OK

Track 5

Filename C:\Users\chris\Desktop\Rips\05 - Maria and Chance.wav

Pre-gap length 0:00:01.02

Peak level 94.8 % Track quality 100.0 % Test CRC E74CC9F6 Copy CRC E74CC9F6 Track not present in AccurateRip database Copy OK

Track 6

Filename C:\Users\chris\Desktop\Rips\06 - Katherine's Killer.wav

Pre-gap length 0:00:01.00

Peak level 94.4 % Track quality 100.0 % Test CRC 37992A3F Copy CRC 37992A3F Track not present in AccurateRip database Copy OK

Track 7

Filename C:\Users\chris\Desktop\Rips\07 - Confronting Baptiste.wav

Pre-gap length 0:00:00.52

Peak level 99.8 % Track quality 100.0 % Test CRC 77173CD0 Copy CRC 77173CD0 Track not present in AccurateRip database Copy OK

Track 8

Filename C:\Users\chris\Desktop\Rips\08 - Courthouse Brawl.wav

Pre-gap length 0:00:01.68

Peak level 94.4 % Track quality 100.0 % Test CRC 696E846F Copy CRC 696E846F Track not present in AccurateRip database Copy OK

Track 9

Filename C:\Users\chris\Desktop\Rips\09 - Stop Running.wav

Pre-gap length 0:00:01.74

Peak level 94.4 % Track quality 100.0 % Test CRC E18BB092 Copy CRC E18BB092 Track not present in AccurateRip database Copy OK

Track 10

Filename C:\Users\chris\Desktop\Rips\10 - Not a Pacifist.wav

Pre-gap length 0:00:01.71

Peak level 94.4 % Track quality 100.0 % Test CRC 03C67420 Copy CRC 03C67420 Track not present in AccurateRip database Copy OK

Track 11

Filename C:\Users\chris\Desktop\Rips\11 - Bullet Train.wav

Pre-gap length 0:00:01.74

Peak level 79.6 % Track quality 100.0 % Test CRC F919D5DF Copy CRC F919D5DF Track not present in AccurateRip database Copy OK

Track 12

Filename C:\Users\chris\Desktop\Rips\12 - Gondola.wav

Pre-gap length 0:00:01.57

Peak level 99.3 % Track quality 99.9 % Test CRC 83E2ABD7 Copy CRC 83E2ABD7 Track not present in AccurateRip database Copy OK

Track 13

Filename C:\Users\chris\Desktop\Rips\13 - An Old Life.wav

Pre-gap length 0:00:00.64

Peak level 94.4 % Track quality 100.0 % Test CRC 864BCD91 Copy CRC 864BCD91 Track not present in AccurateRip database Copy OK

Track 14

Filename C:\Users\chris\Desktop\Rips\14 - Lockdown.wav

Pre-gap length 0:00:01.74

Peak level 94.4 % Track quality 100.0 % Test CRC 8D51215A Copy CRC 8D51215A Track not present in AccurateRip database Copy OK

Track 15

Filename C:\Users\chris\Desktop\Rips\15 - A Bottle of Japanese Whiskey.wav

Pre-gap length 0:00:01.74

Peak level 94.4 % Track quality 100.0 % Test CRC 717E5C9E Copy CRC 717E5C9E Track not present in AccurateRip database Copy OK

Track 16

Filename C:\Users\chris\Desktop\Rips\16 - Victoria.wav

Pre-gap length 0:00:02.43

Peak level 94.4 % Track quality 100.0 % Test CRC 0E81B1A7 Copy CRC 0E81B1A7 Track not present in AccurateRip database Copy OK

Track 17

Filename C:\Users\chris\Desktop\Rips\17 - The New Champion.wav

Pre-gap length 0:00:00.37

Peak level 95.4 % Track quality 99.9 % Test CRC 93FDABD1 Copy CRC 93FDABD1 Track not present in AccurateRip database Copy OK

Track 18

Filename C:\Users\chris\Desktop\Rips\18 - Emma Barnes.wav

Pre-gap length 0:00:01.74

Peak level 83.8 % Track quality 99.9 % Test CRC 6FC2806A Copy CRC 6FC2806A Track not present in AccurateRip database Copy OK

Track 19

Filename C:\Users\chris\Desktop\Rips\19 - Stephanie's Ring.wav

Pre-gap length 0:00:01.73

Peak level 73.8 % Track quality 100.0 % Test CRC 3F5F5D1C Copy CRC 3F5F5D1C Track not present in AccurateRip database Copy OK

Track 20

Filename C:\Users\chris\Desktop\Rips\20 - Port Yard Deaths.wav

Pre-gap length 0:00:01.74

Peak level 94.8 % Track quality 100.0 % Test CRC 3C01D5E3 Copy CRC 3C01D5E3 Track not present in AccurateRip database Copy OK

Track 21

Filename C:\Users\chris\Desktop\Rips\21 - The New Christopher Chance.wav

Pre-gap length 0:00:00.26

Peak level 98.8 % Track quality 100.0 % Test CRC AC819304 Copy CRC AC819304 Track not present in AccurateRip database Copy OK

Track 22

Filename C:\Users\chris\Desktop\Rips\22 - Theme from Human Target (Short Version).wav

Pre-gap length 0:00:01.10

Peak level 94.4 % Track quality 100.0 % Test CRC 7FFA067D Copy CRC 7FFA067D Track not present in AccurateRip database Copy OK

None of the tracks are present in the AccurateRip database

No errors occurred

End of status report
 
Exact Audio Copy V0.99 prebeta 5 from 4. May 2009

EAC extraction logfile from 6. November 2010, 16:49

Bear McCreary / Human Target (Disc 3)

Used drive : Optiarc DVD RW AD-7241S Adapter: 1 ID: 1

Read mode : SecureUtilize accurate stream : YesDefeat audio cache : YesMake use of C2 pointers : No

Read offset correction : 48Overread into Lead-In and Lead-Out : NoFill up missing offset samples with silence : YesDelete leading and trailing silent blocks : NoNull samples used in CRC calculations : YesUsed interface : Native Win32 interface for Win NT & 2000Gap handling : Appended to previous track

Used output format : User Defined EncoderSelected bitrate : 128 kBit/sQuality : HighAdd ID3 tag : NoCommand line compressor : C:\Program Files (x86)\[pre]Exact Audio Copy\Flac\flac.exeAdditional command line options : -8 -V -T "artist=%a" -T "title=%t" -T "album=%g" -T "date=%y" -T "tracknumber=%n" -T "genre=%m" %s

TOC of the extracted CD

Track | Start | Length | Start sector | End sector --------------------------------------------------------- 1 | 0:00.13 | 0:49.68 | 13 | 3755 2 | 0:50.06 | 3:25.22 | 3756 | 19152 3 | 4:15.28 | 2:24.25 | 19153 | 29977 4 | 6:39.53 | 1:58.41 | 29978 | 38868 5 | 8:38.19 | 1:21.55 | 38869 | 44998 6 | 9:59.74 | 2:51.17 | 44999 | 57840 7 | 12:51.16 | 0:54.41 | 57841 | 61931 8 | 13:45.57 | 3:03.56 | 61932 | 75712 9 | 16:49.38 | 1:41.41 | 75713 | 83328 10 | 18:31.04 | 1:27.50 | 83329 | 89903 11 | 19:58.54 | 6:59.64 | 89904 | 121392 12 | 26:58.43 | 1:46.22 | 121393 | 129364 13 | 28:44.65 | 3:35.14 | 129365 | 145503 14 | 32:20.04 | 2:42.31 | 145504 | 157684 15 | 35:02.35 | 5:49.58 | 157685 | 183917 16 | 40:52.18 | 0:50.46 | 183918 | 187713 17 | 41:42.64 | 1:17.31 | 187714 | 193519 18 | 43:00.20 | 1:44.25 | 193520 | 201344 19 | 44:44.45 | 1:48.48 | 201345 | 209492 20 | 46:33.18 | 0:37.68 | 209493 | 212335

Track 1

Filename C:\Users\chris\Desktop\Rips\01 - Flight Attendant Wilson.wav

Pre-gap length 0:00:02.13

Peak level 94.4 % Track quality 100.0 % Test CRC 00C344BF Copy CRC 00C344BF Track not present in AccurateRip database Copy OK

Track 2

Filename C:\Users\chris\Desktop\Rips\02 - Round One.wav

Peak level 99.1 % Track quality 100.0 % Test CRC FF31269B Copy CRC FF31269B Track not present in AccurateRip database Copy OK

Track 3

Filename C:\Users\chris\Desktop\Rips\03 - Emma's Bra.wav

Peak level 94.4 % Track quality 100.0 % Test CRC 39B52B15 Copy CRC 39B52B15 Track not present in AccurateRip database Copy OK

Track 4

Filename C:\Users\chris\Desktop\Rips\04 - Maria Gallego.wav

Peak level 95.1 % Track quality 99.9 % Test CRC FA70B059 Copy CRC FA70B059 Track not present in AccurateRip database Copy OK

Track 5

Filename C:\Users\chris\Desktop\Rips\05 - Afraid in Alaska.wav

Peak level 94.4 % Track quality 100.0 % Test CRC B0200C05 Copy CRC B0200C05 Track not present in AccurateRip database Copy OK

Track 6

Filename C:\Users\chris\Desktop\Rips\06 - Guerro and Sergei.wav

Peak level 94.4 % Track quality 100.0 % Test CRC 9047BFC8 Copy CRC 9047BFC8 Track not present in AccurateRip database Copy OK

Track 7

Filename C:\Users\chris\Desktop\Rips\07 - Chance Takes the Job.wav

Peak level 94.4 % Track quality 100.0 % Test CRC CEF08291 Copy CRC CEF08291 Track not present in AccurateRip database Copy OK

Track 8

Filename C:\Users\chris\Desktop\Rips\08 - Tracking Device.wav

Peak level 94.4 % Track quality 100.0 % Test CRC C4CA7215 Copy CRC C4CA7215 Track not present in AccurateRip database Copy OK

Track 9

Filename C:\Users\chris\Desktop\Rips\09 - The Black Room.wav

Pre-gap length 0:00:01.18

Peak level 94.4 % Track quality 100.0 % Test CRC 95D80DE4 Copy CRC 95D80DE4 Track not present in AccurateRip database Copy OK

Track 10

Filename C:\Users\chris\Desktop\Rips\10 - Fighting Kendrick Taylor.wav

Peak level 94.4 % Track quality 99.8 % Test CRC B45D29B6 Copy CRC B45D29B6 Track not present in AccurateRip database Copy OK

Track 11

Filename C:\Users\chris\Desktop\Rips\11 - Bertram.wav

Pre-gap length 0:00:00.20

Peak level 94.4 % Track quality 100.0 % Test CRC B70366F2 Copy CRC B70366F2 Track not present in AccurateRip database Copy OK

Track 12

Filename C:\Users\chris\Desktop\Rips\12 - Sparing Guerrero.wav

Pre-gap length 0:00:00.52

Peak level 94.4 % Track quality 100.0 % Test CRC 17AC8AC8 Copy CRC 17AC8AC8 Track not present in AccurateRip database Copy OK

Track 13

Filename C:\Users\chris\Desktop\Rips\13 - Scar Stories.wav

Pre-gap length 0:00:00.18

Peak level 44.3 % Track quality 99.9 % Test CRC 553C9992 Copy CRC 553C9992 Track not present in AccurateRip database Copy OK

Track 14

Filename C:\Users\chris\Desktop\Rips\14 - Danny's Killer.wav

Pre-gap length 0:00:00.56

Peak level 97.0 % Track quality 100.0 % Test CRC F99686A0 Copy CRC F99686A0 Track not present in AccurateRip database Copy OK

Track 15

Filename C:\Users\chris\Desktop\Rips\15 - Chaos in the Cockpit.wav

Pre-gap length 0:00:00.62

Peak level 98.2 % Track quality 100.0 % Test CRC F557E4A1 Copy CRC F557E4A1 Track not present in AccurateRip database Copy OK

Track 16

Filename C:\Users\chris\Desktop\Rips\16 - A Mistake.wav

Peak level 94.4 % Track quality 100.0 % Test CRC FC7800E0 Copy CRC FC7800E0 Track not present in AccurateRip database Copy OK

Track 17

Filename C:\Users\chris\Desktop\Rips\17 - Chance's Theme (Sketch Version 1).wav

Peak level 94.4 % Track quality 100.0 % Test CRC 0B66B2F3 Copy CRC 0B66B2F3 Track not present in AccurateRip database Copy OK

Track 18

Filename C:\Users\chris\Desktop\Rips\18 - Chance's Theme (Sketch Version 2).wav

Pre-gap length 0:00:01.00

Peak level 99.2 % Track quality 100.0 % Test CRC BE3FC76E Copy CRC BE3FC76E Track not present in AccurateRip database Copy OK

Track 19

Filename C:\Users\chris\Desktop\Rips\19 - Katherine's Theme (Solo Piano Version).wav

Pre-gap length 0:00:01.00

Peak level 31.5 % Track quality 100.0 % Test CRC 3BD3A3DD Copy CRC 3BD3A3DD Track not present in AccurateRip database Copy OK

Track 20

Filename C:\Users\chris\Desktop\Rips\20 - Theme from Human Target (Alternate Short Version).wav

Pre-gap length 0:00:03.02

Peak level 99.3 % Track quality 100.0 % Test CRC F9BFF7AE Copy CRC F9BFF7AE Track not present in AccurateRip database Copy OK

None of the tracks are present in the AccurateRip database

No errors occurred

End of status report
 
REM GENRE SoundtrackREM DATE 2010REM DISCID 3E125715REM COMMENT "[pre]ExactAudioCopy v0.99pb5"PERFORMER "Bear McCreary"TITLE "Human Target (Disc 1)"FILE "01 - Theme from Human Target (Long Version).wav" WAVE TRACK 01 AUDIO TITLE "Theme from Human Target (Long Version)" PERFORMER "Bear McCreary" PREGAP 00:00:16 INDEX 01 00:00:00FILE "02 - Skydive.wav" WAVE TRACK 02 AUDIO TITLE "Skydive" PERFORMER "Bear McCreary" INDEX 01 00:00:00 TRACK 03 AUDIO TITLE "No Threats" PERFORMER "Bear McCreary" INDEX 00 05:18:54FILE "03 - No Threats.wav" WAVE INDEX 01 00:00:00 TRACK 04 AUDIO TITLE "Military Camp Rescue" PERFORMER "Bear McCreary" INDEX 00 04:15:71FILE "04 - Military Camp Rescue.wav" WAVE INDEX 01 00:00:00 TRACK 05 AUDIO TITLE "Motorcycle Escape" PERFORMER "Bear McCreary" INDEX 00 04:35:65FILE "05 - Motorcycle Escape.wav" WAVE INDEX 01 00:00:00 TRACK 06 AUDIO TITLE "Monastery in the Mountains" PERFORMER "Bear McCreary" INDEX 00 05:27:04FILE "06 - Monastery in the Mountains.wav" WAVE INDEX 01 00:00:00FILE "07 - Paint a Bullseye.wav" WAVE TRACK 07 AUDIO TITLE "Paint a Bullseye" PERFORMER "Bear McCreary" INDEX 01 00:00:00FILE "08 - The Katherine Walters File.wav" WAVE TRACK 08 AUDIO TITLE "The Katherine Walters File" PERFORMER "Bear McCreary" INDEX 01 00:00:00 TRACK 09 AUDIO TITLE "Switching Sides" PERFORMER "Bear McCreary" INDEX 00 04:29:22FILE "09 - Switching Sides.wav" WAVE INDEX 01 00:00:00 TRACK 10 AUDIO TITLE "This is Awkward" PERFORMER "Bear McCreary" INDEX 00 06:08:49FILE "10 - This is Awkward.wav" WAVE INDEX 01 00:00:00 TRACK 11 AUDIO TITLE "The Russian Embassy" PERFORMER "Bear McCreary" INDEX 00 02:10:42FILE "11 - The Russian Embassy.wav" WAVE INDEX 01 00:00:00 TRACK 12 AUDIO TITLE "The Devil's Mouth" PERFORMER "Bear McCreary" INDEX 00 03:31:41FILE "12 - The Devil's Mouth.wav" WAVE INDEX 01 00:00:00 TRACK 13 AUDIO TITLE "Ice Cubes" PERFORMER "Bear McCreary" INDEX 00 01:20:10FILE "13 - Ice Cubes.wav" WAVE INDEX 01 00:00:00 TRACK 14 AUDIO TITLE "Allyson's Past" PERFORMER "Bear McCreary" INDEX 00 02:05:11FILE "14 - Allyson's Past.wav" WAVE INDEX 01 00:00:00 TRACK 15 AUDIO TITLE "Flipping the Plane" PERFORMER "Bear McCreary" INDEX 00 03:04:72FILE "15 - Flipping the Plane.wav" WAVE INDEX 01 00:00:00 TRACK 16 AUDIO TITLE "Driving Away" PERFORMER "Bear McCreary" INDEX 00 10:53:42FILE "16 - Driving Away.wav" WAVE INDEX 01 00:00:00FILE "17 - Airborne and Lethal.wav" WAVE TRACK 17 AUDIO TITLE "Airborne and Lethal" PERFORMER "Bear McCreary" INDEX 01 00:00:00FILE "18 - Chance's Old Boss.wav" WAVE TRACK 18 AUDIO TITLE "Chance's Old Boss" PERFORMER "Bear McCreary" INDEX 01 00:00:00FILE "19 - Old Chance.wav" WAVE TRACK 19 AUDIO TITLE "Old Chance" PERFORMER "Bear McCreary" INDEX 01 00:00:00FILE "20 - Skyhook Rescue.wav" WAVE TRACK 20 AUDIO TITLE "Skyhook Rescue" PERFORMER "Bear McCreary" INDEX 01 00:00:00FILE "21 - Into the West.wav" WAVE TRACK 21 AUDIO TITLE "Into the West" PERFORMER "Bear McCreary" INDEX 01 00:00:00
 
REM GENRE SoundtrackREM DATE 2010REM DISCID 44129B16REM COMMENT "[pre]ExactAudioCopy v0.99pb5"PERFORMER "Bear McCreary"TITLE "Human Target (Disc 2)"FILE "01 - New York City Arrival.wav" WAVE TRACK 01 AUDIO TITLE "New York City Arrival" PERFORMER "Bear McCreary" INDEX 01 00:00:00 TRACK 02 AUDIO TITLE "Train Fight" PERFORMER "Bear McCreary" INDEX 00 01:51:00FILE "02 - Train Fight.wav" WAVE INDEX 01 00:00:00 TRACK 03 AUDIO TITLE "Baptiste" PERFORMER "Bear McCreary" INDEX 00 03:32:28FILE "03 - Baptiste.wav" WAVE INDEX 01 00:00:00 TRACK 04 AUDIO TITLE "Tango Fight" PERFORMER "Bear McCreary" INDEX 00 02:36:72FILE "04 - Tango Fight.wav" WAVE INDEX 01 00:00:00 TRACK 05 AUDIO TITLE "Maria and Chance" PERFORMER "Bear McCreary" INDEX 00 01:26:22FILE "05 - Maria and Chance.wav" WAVE INDEX 01 00:00:00 TRACK 06 AUDIO TITLE "Katherine's Killer" PERFORMER "Bear McCreary" INDEX 00 02:33:74FILE "06 - Katherine's Killer.wav" WAVE INDEX 01 00:00:00 TRACK 07 AUDIO TITLE "Confronting Baptiste" PERFORMER "Bear McCreary" INDEX 00 04:09:46FILE "07 - Confronting Baptiste.wav" WAVE INDEX 01 00:00:00 TRACK 08 AUDIO TITLE "Courthouse Brawl" PERFORMER "Bear McCreary" INDEX 00 08:49:11FILE "08 - Courthouse Brawl.wav" WAVE INDEX 01 00:00:00 TRACK 09 AUDIO TITLE "Stop Running" PERFORMER "Bear McCreary" INDEX 00 05:06:74FILE "09 - Stop Running.wav" WAVE INDEX 01 00:00:00 TRACK 10 AUDIO TITLE "Not a Pacifist" PERFORMER "Bear McCreary" INDEX 00 03:05:72FILE "10 - Not a Pacifist.wav" WAVE INDEX 01 00:00:00 TRACK 11 AUDIO TITLE "Bullet Train" PERFORMER "Bear McCreary" INDEX 00 00:44:18FILE "11 - Bullet Train.wav" WAVE INDEX 01 00:00:00 TRACK 12 AUDIO TITLE "Gondola" PERFORMER "Bear McCreary" INDEX 00 01:55:00FILE "12 - Gondola.wav" WAVE INDEX 01 00:00:00 TRACK 13 AUDIO TITLE "An Old Life" PERFORMER "Bear McCreary" INDEX 00 08:42:60FILE "13 - An Old Life.wav" WAVE INDEX 01 00:00:00 TRACK 14 AUDIO TITLE "Lockdown" PERFORMER "Bear McCreary" INDEX 00 03:19:14FILE "14 - Lockdown.wav" WAVE INDEX 01 00:00:00 TRACK 15 AUDIO TITLE "A Bottle of Japanese Whiskey" PERFORMER "Bear McCreary" INDEX 00 05:00:36FILE "15 - A Bottle of Japanese Whiskey.wav" WAVE INDEX 01 00:00:00 TRACK 16 AUDIO TITLE "Victoria" PERFORMER "Bear McCreary" INDEX 00 01:31:58FILE "16 - Victoria.wav" WAVE INDEX 01 00:00:00 TRACK 17 AUDIO TITLE "The New Champion" PERFORMER "Bear McCreary" INDEX 00 03:29:09FILE "17 - The New Champion.wav" WAVE INDEX 01 00:00:00 TRACK 18 AUDIO TITLE "Emma Barnes" PERFORMER "Bear McCreary" INDEX 00 05:54:01FILE "18 - Emma Barnes.wav" WAVE INDEX 01 00:00:00 TRACK 19 AUDIO TITLE "Stephanie's Ring" PERFORMER "Bear McCreary" INDEX 00 03:08:23FILE "19 - Stephanie's Ring.wav" WAVE INDEX 01 00:00:00 TRACK 20 AUDIO TITLE "Port Yard Deaths" PERFORMER "Bear McCreary" INDEX 00 01:48:65FILE "20 - Port Yard Deaths.wav" WAVE INDEX 01 00:00:00 TRACK 21 AUDIO TITLE "The New Christopher Chance" PERFORMER "Bear McCreary" INDEX 00 02:51:64FILE "21 - The New Christopher Chance.wav" WAVE INDEX 01 00:00:00 TRACK 22 AUDIO TITLE "Theme from Human Target (Short Version)" PERFORMER "Bear McCreary" INDEX 00 06:32:72FILE "22 - Theme from Human Target (Short Version).wav" WAVE INDEX 01 00:00:00
 
REM GENRE SoundtrackREM DATE 2010REM DISCID E00B0F14REM COMMENT "[pre]ExactAudioCopy v0.99pb5"PERFORMER "Bear McCreary"TITLE "Human Target (Disc 3)"FILE "01 - Flight Attendant Wilson.wav" WAVE TRACK 01 AUDIO TITLE "Flight Attendant Wilson" PERFORMER "Bear McCreary" PREGAP 00:00:13 INDEX 01 00:00:00FILE "02 - Round One.wav" WAVE TRACK 02 AUDIO TITLE "Round One" PERFORMER "Bear McCreary" INDEX 01 00:00:00FILE "03 - Emma's Bra.wav" WAVE TRACK 03 AUDIO TITLE "Emma's Bra" PERFORMER "Bear McCreary" INDEX 01 00:00:00FILE "04 - Maria Gallego.wav" WAVE TRACK 04 AUDIO TITLE "Maria Gallego" PERFORMER "Bear McCreary" INDEX 01 00:00:00FILE "05 - Afraid in Alaska.wav" WAVE TRACK 05 AUDIO TITLE "Afraid in Alaska" PERFORMER "Bear McCreary" INDEX 01 00:00:00FILE "06 - Guerro and Sergei.wav" WAVE TRACK 06 AUDIO TITLE "Guerro and Sergei" PERFORMER "Bear McCreary" INDEX 01 00:00:00FILE "07 - Chance Takes the Job.wav" WAVE TRACK 07 AUDIO TITLE "Chance Takes the Job" PERFORMER "Bear McCreary" INDEX 01 00:00:00FILE "08 - Tracking Device.wav" WAVE TRACK 08 AUDIO TITLE "Tracking Device" PERFORMER "Bear McCreary" INDEX 01 00:00:00 TRACK 09 AUDIO TITLE "The Black Room" PERFORMER "Bear McCreary" INDEX 00 03:02:38FILE "09 - The Black Room.wav" WAVE INDEX 01 00:00:00FILE "10 - Fighting Kendrick Taylor.wav" WAVE TRACK 10 AUDIO TITLE "Fighting Kendrick Taylor" PERFORMER "Bear McCreary" INDEX 01 00:00:00 TRACK 11 AUDIO TITLE "Bertram" PERFORMER "Bear McCreary" INDEX 00 01:27:30FILE "11 - Bertram.wav" WAVE INDEX 01 00:00:00 TRACK 12 AUDIO TITLE "Sparing Guerrero" PERFORMER "Bear McCreary" INDEX 00 06:59:12FILE "12 - Sparing Guerrero.wav" WAVE INDEX 01 00:00:00 TRACK 13 AUDIO TITLE "Scar Stories" PERFORMER "Bear McCreary" INDEX 00 01:46:04FILE "13 - Scar Stories.wav" WAVE INDEX 01 00:00:00 TRACK 14 AUDIO TITLE "Danny's Killer" PERFORMER "Bear McCreary" INDEX 00 03:34:33FILE "14 - Danny's Killer.wav" WAVE INDEX 01 00:00:00 TRACK 15 AUDIO TITLE "Chaos in the Cockpit" PERFORMER "Bear McCreary" INDEX 00 02:41:44FILE "15 - Chaos in the Cockpit.wav" WAVE INDEX 01 00:00:00FILE "16 - A Mistake.wav" WAVE TRACK 16 AUDIO TITLE "A Mistake" PERFORMER "Bear McCreary" INDEX 01 00:00:00FILE "17 - Chance's Theme (Sketch Version 1).wav" WAVE TRACK 17 AUDIO TITLE "Chance's Theme (Sketch Version 1)" PERFORMER "Bear McCreary" INDEX 01 00:00:00 TRACK 18 AUDIO TITLE "Chance's Theme (Sketch Version 2)" PERFORMER "Bear McCreary" INDEX 00 01:16:31FILE "18 - Chance's Theme (Sketch Version 2).wav" WAVE INDEX 01 00:00:00 TRACK 19 AUDIO TITLE "Katherine's Theme (Solo Piano Version)" PERFORMER "Bear McCreary" INDEX 00 01:43:25FILE "19 - Katherine's Theme (Solo Piano Version).wav" WAVE INDEX 01 00:00:00 TRACK 20 AUDIO TITLE "Theme from Human Target (Alternate Short Version)" PERFORMER "Bear McCreary" INDEX 00 01:45:46FILE "20 - Theme from Human Target (Alternate Short Version).wav" WAVE INDEX 01 00:00:00


Трекер:  [ 19-Дек-2010 12:44 ]

  

Скачать .torrent

Размер .torrent файла 25 KB


Размер: 1002 MB
Хэш (hash) релиза: d83e24460a036ea8893ca6f83995935bb93b4f32

Торренты, похожие на Живая мишень Human Target скачать торрент

Форум Название Автор Размер S L Добавлен
Саундтреки к фильмам и мультфильмам (mp3) ·· (Score) Живая мишень / Human Target (by Bear McCreary) - 2010, MP3 (tracks), 320 kbps Солнышко 539729661515 MB 0 0 1292265704

21:41

13-Дек-10

bot

Топик был перенесен в форум Саундтреки к фильмам и мультфильмам (lossless)

Перенес AqvaGen

Хотите добавить комментарий к записи скачать торрент Живая мишень Human Target

!Обратная связь