Скачать через торрент музыку Sigur Rós - Hlemmur - 2003, FLAC бесплатно без регистрации torrent

Если у вас наблюдаются проблемы со скриншотами, переходом по ссылками, скачиванием торрентов - проблемы в блокировщике рекламы AdBlock. #хорошегоДня!


Статистика раздачи
Размер:  164 MB   |    Зарегистрирован:  6 лет 11 месяцев   |    .torrent скачан:  49 раз   |   
Раздают:  1  
   
Загрузка...
 
Автор Сообщение

Mos

avatar Mos


Sigur Rós - Hlemmur

Жанр: Score / Post-Rock / Minimal / Ambient
Год выпуска диска: 2003
Аудио кодек: FLAC
Тип рипа: tracks+.cue
Битрейт аудио: lossless
Трэклист:
01. Jósep Tekur Fimmuna Í Vinnuna (3:03)
02. Hlemmur (1:36)
03. Fyrsta Ferð (2:33)
04. Vetur (1:46)
05. Hvalir Í Útrýmingarhættu (2:57)
06. Hlemmur 2 (0:39)
07. Þversögn (2:07)
08. 1970 (1:11)
09. Jósep Tekur Fimmuna Í Vinnuna 2 (1:44)
10. Ég Mun Læknast! (1:53)
11. 1993 (1:09)
12. Hlemmur 3 (1:17)
13. Síðasta Ferð (2:36)
14. 2320 (lokað) (1:40)
15. Byrgið (1:33)
16. Áfram Ísland (1:20)
17. Allt Tekur Sinn Tíma! (2:43)
18. Hannes (2:35)
19. Óskabörn Þjóðarinnar (4:46)
 
EAC extraction logfile from 28. November 2007, 12:59 for CDSigur Rуs / Hlemmur

Used drive : LITE-ON DVDRW LH-20A1H Adapter: 0 ID: 1Read mode : Secure with NO C2, accurate stream, disable cacheRead offset correction : 6Overread into Lead-In and Lead-Out : No

Used output format : C:\Program Files\FLAC\flac.exe (User Defined Encoder) 320 kBit/s Additional command line options : -V -5 -T "artist=%a" -T "title=%t" -T "album=%g" -T "date=%y" -T "tracknumber=%n" -T "genre=%m" %s Use compression offset : 0

Other options : Fill up missing offset samples with silence : Yes Delete leading and trailing silent blocks : No Native Win32 interface for Win NT & 2000

Track 1 Filename C:\Documents and Settings\Wesz\Desktop\CD Temp\(2003) Hlemmur\01 - Sigur Rуs - Jуsep tekur fimmuna н vinnuna.wav

Pre-gap length 0:00:02.00

Peak level 100.0 % Track quality 100.0 % Test CRC 5793591A Copy CRC 5793591A Copy OK

Track 2 Filename C:\Documents and Settings\Wesz\Desktop\CD Temp\(2003) Hlemmur\02 - Sigur Rуs - Hlemmur.wav

Pre-gap length 0:00:01.02

Peak level 69.4 % Track quality 99.8 % Test CRC BFC156AD Copy CRC BFC156AD Copy OK

Track 3 Filename C:\Documents and Settings\Wesz\Desktop\CD Temp\(2003) Hlemmur\03 - Sigur Rуs - Fyrsta ferр.wav

Pre-gap length 0:00:02.62

Peak level 76.6 % Track quality 100.0 % Test CRC 6141B478 Copy CRC 6141B478 Copy OK

Track 4 Filename C:\Documents and Settings\Wesz\Desktop\CD Temp\(2003) Hlemmur\04 - Sigur Rуs - Vetur.wav

Pre-gap length 0:00:02.80

Peak level 99.9 % Track quality 100.0 % Test CRC 77F615BA Copy CRC 77F615BA Copy OK

Track 5 Filename C:\Documents and Settings\Wesz\Desktop\CD Temp\(2003) Hlemmur\05 - Sigur Rуs - Hvalir н ъtrэmingarhжttu.wav

Pre-gap length 0:00:01.80

Peak level 100.0 % Track quality 100.0 % Test CRC B68259E4 Copy CRC B68259E4 Copy OK

Track 6 Filename C:\Documents and Settings\Wesz\Desktop\CD Temp\(2003) Hlemmur\06 - Sigur Rуs - Hlemmur 2.wav

Pre-gap length 0:00:03.04

Peak level 78.1 % Track quality 100.0 % Test CRC E1418A95 Copy CRC E1418A95 Copy OK

Track 7 Filename C:\Documents and Settings\Wesz\Desktop\CD Temp\(2003) Hlemmur\07 - Sigur Rуs - юversцgn.wav

Pre-gap length 0:00:03.86

Peak level 100.0 % Track quality 99.9 % Test CRC 9453D9D1 Copy CRC 9453D9D1 Copy OK

Track 8 Filename C:\Documents and Settings\Wesz\Desktop\CD Temp\(2003) Hlemmur\08 - Sigur Rуs - 1970.wav

Pre-gap length 0:00:02.46

Peak level 84.1 % Track quality 100.0 % Test CRC 105A125A Copy CRC 105A125A Copy OK

Track 9 Filename C:\Documents and Settings\Wesz\Desktop\CD Temp\(2003) Hlemmur\09 - Sigur Rуs - Jуsep tekur fimmuna н vinnuna 2.wav

Pre-gap length 0:00:03.66

Peak level 96.6 % Track quality 100.0 % Test CRC 6D44D48F Copy CRC 6D44D48F Copy OK

Track 10 Filename C:\Documents and Settings\Wesz\Desktop\CD Temp\(2003) Hlemmur\10 - Sigur Rуs - Йg mun lжknast!.wav

Pre-gap length 0:00:03.46

Peak level 95.1 % Track quality 99.9 % Test CRC 5FFF58CD Copy CRC 5FFF58CD Copy OK

Track 11 Filename C:\Documents and Settings\Wesz\Desktop\CD Temp\(2003) Hlemmur\11 - Sigur Rуs - 1993.wav

Pre-gap length 0:00:02.06

Peak level 76.3 % Track quality 99.8 % Test CRC 056459E9 Copy CRC 056459E9 Copy OK

Track 12 Filename C:\Documents and Settings\Wesz\Desktop\CD Temp\(2003) Hlemmur\12 - Sigur Rуs - Hlemmur 3.wav

Pre-gap length 0:00:04.00

Peak level 88.5 % Track quality 100.0 % Test CRC A193D021 Copy CRC A193D021 Copy OK

Track 13 Filename C:\Documents and Settings\Wesz\Desktop\CD Temp\(2003) Hlemmur\13 - Sigur Rуs - Sнрasta ferр.wav

Pre-gap length 0:00:02.64

Peak level 93.0 % Track quality 100.0 % Test CRC 94100C0C Copy CRC 94100C0C Copy OK

Track 14 Filename C:\Documents and Settings\Wesz\Desktop\CD Temp\(2003) Hlemmur\14 - Sigur Rуs - 23-20 (lokaр).wav

Pre-gap length 0:00:02.93

Peak level 79.3 % Track quality 100.0 % Test CRC 39330585 Copy CRC 39330585 Copy OK

Track 15 Filename C:\Documents and Settings\Wesz\Desktop\CD Temp\(2003) Hlemmur\15 - Sigur Rуs - Byrgiр.wav

Pre-gap length 0:00:03.00

Peak level 97.5 % Track quality 100.0 % Test CRC A36CFF1C Copy CRC A36CFF1C Copy OK

Track 16 Filename C:\Documents and Settings\Wesz\Desktop\CD Temp\(2003) Hlemmur\16 - Sigur Rуs - Бfram Нsland.wav

Pre-gap length 0:00:03.26

Peak level 100.0 % Track quality 100.0 % Test CRC 5D142C00 Copy CRC 5D142C00 Copy OK

Track 17 Filename C:\Documents and Settings\Wesz\Desktop\CD Temp\(2003) Hlemmur\17 - Sigur Rуs - Allt tekur sinn tнma!.wav

Pre-gap length 0:00:02.77

Peak level 93.0 % Track quality 99.9 % Test CRC D1A0C452 Copy CRC D1A0C452 Copy OK

Track 18 Filename C:\Documents and Settings\Wesz\Desktop\CD Temp\(2003) Hlemmur\18 - Sigur Rуs - Hannes.wav

Pre-gap length 0:00:03.50

Peak level 82.4 % Track quality 100.0 % Test CRC 2EA86A37 Copy CRC 2EA86A37 Copy OK

Track 19 Filename C:\Documents and Settings\Wesz\Desktop\CD Temp\(2003) Hlemmur\19 - Sigur Rуs - Уskabцrn юjурarinnar.wav

Pre-gap length 0:00:04.20

Peak level 77.5 % Track quality 100.0 % Test CRC 3AE851EC Copy CRC 3AE851EC Copy OK

No errors occured

End of status report
Местами завораживающий саундтрек, но все же слабее основных работ коллектива: с творчеством Sigur Ros лучше знакомиться с альбомов ( ), Takk... и Ágætis Byrjun - там они просто великолепны.

Релиз c What.cd

Трекер:  [ 21-Дек-2010 13:32 ]

  

Скачать .torrent

Размер .torrent файла 14 KB


Размер: 164 MB
Хэш (hash) релиза: c87aa91835dfee2bd50b466022c01dc8c7d7556b

bot

Топик был перенесен в форум Саундтреки к фильмам и мультфильмам (lossless)

Перенес Mos

Хотите добавить комментарий к записи скачать торрент Sigur Rós - Hlemmur - 2003, FLAC

!Обратная связь