Скачать через торрент музыку Ватель Vatel бесплатно без регистрации torrent

Если у вас наблюдаются проблемы со скриншотами, переходом по ссылками, скачиванием торрентов - проблемы в блокировщике рекламы AdBlock. #хорошегоДня!


Статистика раздачи
Размер:  303 MB   |    Зарегистрирован:  6 лет 9 месяцев   |    .torrent скачан:  40 раз   |   
Раздают:  1  
   
Загрузка...
 
Автор Сообщение

AqvaGen


Ватель / Vatel

Жанр: Score
Композитор: Ennio Morricone & VA
Год выпуска диска: 2001
Год выпуска фильма: 2000
Страна-производитель диска: USA
Издатель (лейбл): Virgin Records
Номер по каталогу: 50712

Аудио кодек: FLAC (*.flac)
Тип рипа: tracks+.cue
Битрейт аудио: lossless
Продолжительность: 54:59

Наличие сканов в содержимом раздачи: нет
01. Theme de Vatel (3:20)
02. L'Amour Suspendu (6:13)
03. Ouverture pour Vatel (3:11)
04. Symonie avec Voix (3:58)
05. Vertige (1:50)
06. Theme de Vatel (1:36)
07. Kaleidoscope (6:39)
08. Deuxieme Symphonie (2:29)
09. Fete et Cynisme (3:55)
10. Hippolyte et Aricie 'Temple Sacre' (Composed by Jean-Philipe Rameau) (3:20)
11. Secundo Pezzo (1:51)
12. L'Air D'Absalom (Composed by Giovanni Paolo Colonna) (1:26)
13. Deux Courtisanes (3:06)
14. Debut de la Fete (2:04)
15. Ouverture de la Cour (1:57)
16. La Bouree (Composed by Jean-Philipe Rameau) (1:44)
17. Les Indes Galantes (Composed by Jean-Philipe Rameau) (1:45)
18. The Royal Fireworks (Composed by Georg Friedrich Händel) (4:38)
 
Exact Audio Copy V0.99 prebeta 5 from 4. May 2009

EAC extraction logfile from 30. July 2010, 13:40

Ennio Morricone / Vatel

Used drive : Optiarc BD ROM BC-5500S Adapter: 2 ID: 0

Read mode : SecureUtilize accurate stream : YesDefeat audio cache : YesMake use of C2 pointers : No

Read offset correction : 48Overread into Lead-In and Lead-Out : NoFill up missing offset samples with silence : YesDelete leading and trailing silent blocks : NoNull samples used in CRC calculations : YesUsed interface : Native Win32 interface for Win NT & 2000Gap handling : Appended to previous track

Used output format : User Defined EncoderSelected bitrate : 1024 kBit/sQuality : HighAdd ID3 tag : NoCommand line compressor : C:\Program Files (x86)\Exact Audio Copy\Flac\flac.exeAdditional command line options : -V -8 -T "artist=%a" -T "title=%t" -T "album=%g" -T "date=%y" -T "tracknumber=%n" -T "genre=%m" %s

TOC of the extracted CD

Track | Start | Length | Start sector | End sector --------------------------------------------------------- 1 | 0:00.00 | 3:20.05 | 0 | 15004 2 | 3:20.05 | 6:12.52 | 15005 | 42956 3 | 9:32.57 | 3:10.73 | 42957 | 57279 4 | 12:43.55 | 3:57.45 | 57280 | 75099 5 | 16:41.25 | 1:50.00 | 75100 | 83349 6 | 18:31.25 | 1:35.55 | 83350 | 90529 7 | 20:07.05 | 6:39.00 | 90530 | 120454 8 | 26:46.05 | 2:29.00 | 120455 | 131629 9 | 29:15.05 | 3:54.57 | 131630 | 149236 10 | 33:09.62 | 3:20.18 | 149237 | 164254 11 | 36:30.05 | 1:50.45 | 164255 | 172549 12 | 38:20.50 | 1:25.70 | 172550 | 178994 13 | 39:46.45 | 3:05.40 | 178995 | 192909 14 | 42:52.10 | 2:03.62 | 192910 | 202196 15 | 44:55.72 | 1:57.28 | 202197 | 210999 16 | 46:53.25 | 1:43.65 | 211000 | 218789 17 | 48:37.15 | 1:44.72 | 218790 | 226661 18 | 50:22.12 | 4:37.45 | 226662 | 247481

Track 1

Filename M:\Zik Flac\LzTr\Vatel (2000)\01 - Ennio Morricone - Theme de Vatel.wav

Pre-gap length 0:00:02.00

Peak level 99.3 % Track quality 100.0 % Test CRC 26CDAE6A Copy CRC 26CDAE6A Track not present in AccurateRip database Copy OK

Track 2

Filename M:\Zik Flac\LzTr\Vatel (2000)\02 - Ennio Morricone - L'Amour Suspendu.wav

Pre-gap length 0:00:00.84

Peak level 99.2 % Track quality 100.0 % Test CRC 9CF4D683 Copy CRC 9CF4D683 Track not present in AccurateRip database Copy OK

Track 3

Filename M:\Zik Flac\LzTr\Vatel (2000)\03 - Ennio Morricone - Ouverture pour Vatel.wav

Pre-gap length 0:00:02.86

Peak level 96.8 % Track quality 100.0 % Test CRC 8C90264D Copy CRC 8C90264D Track not present in AccurateRip database Copy OK

Track 4

Filename M:\Zik Flac\LzTr\Vatel (2000)\04 - Ennio Morricone - Symonie avec Voix.wav

Pre-gap length 0:00:06.66

Peak level 99.2 % Track quality 100.0 % Test CRC 8222A5A3 Copy CRC 8222A5A3 Track not present in AccurateRip database Copy OK

Track 5

Filename M:\Zik Flac\LzTr\Vatel (2000)\05 - Ennio Morricone - Vertige.wav

Pre-gap length 0:00:02.86

Peak level 99.2 % Track quality 100.0 % Test CRC F82DCB63 Copy CRC F82DCB63 Track not present in AccurateRip database Copy OK

Track 6

Filename M:\Zik Flac\LzTr\Vatel (2000)\06 - Ennio Morricone - Theme de Vatel.wav

Pre-gap length 0:00:02.84

Peak level 96.3 % Track quality 100.0 % Test CRC BED5D6DE Copy CRC BED5D6DE Track not present in AccurateRip database Copy OK

Track 7

Filename M:\Zik Flac\LzTr\Vatel (2000)\07 - Ennio Morricone - Kaleidoscope.wav

Pre-gap length 0:00:02.84

Peak level 99.2 % Track quality 100.0 % Test CRC 4796A0B8 Copy CRC 4796A0B8 Track not present in AccurateRip database Copy OK

Track 8

Filename M:\Zik Flac\LzTr\Vatel (2000)\08 - Ennio Morricone - Deuxieme Symphonie.wav

Pre-gap length 0:00:02.84

Peak level 99.2 % Track quality 100.0 % Test CRC 260CF074 Copy CRC 260CF074 Track not present in AccurateRip database Copy OK

Track 9

Filename M:\Zik Flac\LzTr\Vatel (2000)\09 - Ennio Morricone - Fete et Cynisme.wav

Pre-gap length 0:00:02.86

Peak level 99.2 % Track quality 99.9 % Test CRC 305BF84E Copy CRC 305BF84E Track not present in AccurateRip database Copy OK

Track 10

Filename M:\Zik Flac\LzTr\Vatel (2000)\10 - Ennio Morricone - Hippolyte et Aricie 'Temple Sacre' Composed by Jean-Philipe Rameau.wav

Pre-gap length 0:00:02.82

Peak level 94.2 % Track quality 99.9 % Test CRC 9DC76326 Copy CRC 9DC76326 Track not present in AccurateRip database Copy OK

Track 11

Filename M:\Zik Flac\LzTr\Vatel (2000)\11 - Ennio Morricone - Secundo Pezzo.wav

Pre-gap length 0:00:02.86

Peak level 99.2 % Track quality 99.9 % Test CRC 6A386C35 Copy CRC 6A386C35 Track not present in AccurateRip database Copy OK

Track 12

Filename M:\Zik Flac\LzTr\Vatel (2000)\12 - Ennio Morricone - L'Air D'Absalom Composed by Giovanni Paolo Colonna.wav

Pre-gap length 0:00:02.84

Peak level 99.2 % Track quality 100.0 % Test CRC 928ADD3D Copy CRC 928ADD3D Track not present in AccurateRip database Copy OK

Track 13

Filename M:\Zik Flac\LzTr\Vatel (2000)\13 - Ennio Morricone - Deux Courtisanes.wav

Pre-gap length 0:00:02.84

Peak level 99.2 % Track quality 100.0 % Test CRC DB450500 Copy CRC DB450500 Track not present in AccurateRip database Copy OK

Track 14

Filename M:\Zik Flac\LzTr\Vatel (2000)\14 - Ennio Morricone - Debut de la Fete.wav

Pre-gap length 0:00:02.84

Peak level 99.2 % Track quality 100.0 % Test CRC 03034681 Copy CRC 03034681 Track not present in AccurateRip database Copy OK

Track 15

Filename M:\Zik Flac\LzTr\Vatel (2000)\15 - Ennio Morricone - Ouverture de la Cour.wav

Pre-gap length 0:00:02.82

Peak level 99.2 % Track quality 100.0 % Test CRC AE060A03 Copy CRC AE060A03 Track not present in AccurateRip database Copy OK

Track 16

Filename M:\Zik Flac\LzTr\Vatel (2000)\16 - Ennio Morricone - La Bouree Composed by Jean-Philipe Rameau.wav

Pre-gap length 0:00:02.86

Peak level 99.2 % Track quality 100.0 % Test CRC 7C11EFFC Copy CRC 7C11EFFC Track not present in AccurateRip database Copy OK

Track 17

Filename M:\Zik Flac\LzTr\Vatel (2000)\17 - Ennio Morricone - Les Indes Galantes Composed by Jean-Philipe Rameau.wav

Pre-gap length 0:00:02.80

Peak level 99.2 % Track quality 99.8 % Test CRC A6C2AE4F Copy CRC A6C2AE4F Track not present in AccurateRip database Copy OK

Track 18

Filename M:\Zik Flac\LzTr\Vatel (2000)\18 - Ennio Morricone - The Royal Fireworks Composed by Georg Friedrich Hдndel.wav

Pre-gap length 0:00:02.82

Peak level 99.2 % Track quality 99.9 % Test CRC C30509CE Copy CRC C30509CE Track not present in AccurateRip database Copy OK

None of the tracks are present in the AccurateRip database

No errors occurred

End of status report
 
REM GENRE SoundtrackREM DATE 2000REM DISCID F70CE312REM COMMENT "ExactAudioCopy v0.99pb5"FILE "01 - Ennio Morricone - Theme de Vatel.wav" WAVE TRACK 01 AUDIO INDEX 01 00:00:00 TRACK 02 AUDIO INDEX 00 03:19:17FILE "02 - Ennio Morricone - L'Amour Suspendu.wav" WAVE INDEX 01 00:00:00 TRACK 03 AUDIO INDEX 00 06:09:62FILE "03 - Ennio Morricone - Ouverture pour Vatel.wav" WAVE INDEX 01 00:00:00 TRACK 04 AUDIO INDEX 00 03:04:23FILE "04 - Ennio Morricone - Symonie avec Voix.wav" WAVE INDEX 01 00:00:00 TRACK 05 AUDIO INDEX 00 03:54:55FILE "05 - Ennio Morricone - Vertige.wav" WAVE INDEX 01 00:00:00 TRACK 06 AUDIO INDEX 00 01:47:12FILE "06 - Ennio Morricone - Theme de Vatel.wav" WAVE INDEX 01 00:00:00 TRACK 07 AUDIO INDEX 00 01:32:67FILE "07 - Ennio Morricone - Kaleidoscope.wav" WAVE INDEX 01 00:00:00 TRACK 08 AUDIO INDEX 00 06:36:12FILE "08 - Ennio Morricone - Deuxieme Symphonie.wav" WAVE INDEX 01 00:00:00 TRACK 09 AUDIO INDEX 00 02:26:10FILE "09 - Ennio Morricone - Fete et Cynisme.wav" WAVE INDEX 01 00:00:00 TRACK 10 AUDIO INDEX 00 03:51:70FILE "10 - Ennio Morricone - Hippolyte et Aricie 'Temple Sacre' Composed by Jean-Philipe Rameau.wav" WAVE INDEX 01 00:00:00 TRACK 11 AUDIO INDEX 00 03:17:28FILE "11 - Ennio Morricone - Secundo Pezzo.wav" WAVE INDEX 01 00:00:00 TRACK 12 AUDIO INDEX 00 01:47:57FILE "12 - Ennio Morricone - L'Air D'Absalom Composed by Giovanni Paolo Colonna.wav" WAVE INDEX 01 00:00:00 TRACK 13 AUDIO INDEX 00 01:23:07FILE "13 - Ennio Morricone - Deux Courtisanes.wav" WAVE INDEX 01 00:00:00 TRACK 14 AUDIO INDEX 00 03:02:52FILE "14 - Ennio Morricone - Debut de la Fete.wav" WAVE INDEX 01 00:00:00 TRACK 15 AUDIO INDEX 00 02:01:00FILE "15 - Ennio Morricone - Ouverture de la Cour.wav" WAVE INDEX 01 00:00:00 TRACK 16 AUDIO INDEX 00 01:54:38FILE "16 - Ennio Morricone - La Bouree Composed by Jean-Philipe Rameau.wav" WAVE INDEX 01 00:00:00 TRACK 17 AUDIO INDEX 00 01:41:05FILE "17 - Ennio Morricone - Les Indes Galantes Composed by Jean-Philipe Rameau.wav" WAVE INDEX 01 00:00:00 TRACK 18 AUDIO INDEX 00 01:42:10FILE "18 - Ennio Morricone - The Royal Fireworks Composed by Georg Friedrich Hдndel.wav" WAVE INDEX 01 00:00:00
 
-----------------------

DON'T MODIFY THIS FILE

-----------------------

PERFORMER: auCDtect Task Manager, ver. 1.0.3 B1 build 1.0.3.0Copyright (c) 2008, 2009 y-soft. All rights reservedhttp://y-soft.110mb.com

ANALYZER: auCDtect: CD records authenticity detector, version 0.8.2Copyright (c) 2004 Oleg Berngardt. All rights reserved.Copyright (c) 2004 Alexander Djourik. All rights reserved.

FILE: 01 - Ennio Morricone - Theme de Vatel.flac Size: 19477621 Hash: E3440D111C948C29DEFF6CF943B4D580 Accuracy: -m0 Conclusion: CDDA 100% Signature: 4E356883DE3876473B39052C97E2E731DD904720FILE: 02 - Ennio Morricone - L'Amour Suspendu.flac Size: 28359809 Hash: 6C31E96FF5F9E0E11C02B2494624940E Accuracy: -m0 Conclusion: CDDA 99% Signature: 012EC223B35534CCCD18A6A65DED9804F24100C2FILE: 03 - Ennio Morricone - Ouverture pour Vatel.flac Size: 15721789 Hash: DFFEE29811FF59637D3FC8B74EEA9ACE Accuracy: -m0 Conclusion: CDDA 99% Signature: 960F62EA23D89D12850B5B32CD71F7CAD5CF94A9FILE: 05 - Ennio Morricone - Vertige.flac Size: 8854756 Hash: 634DE8ADD73871B2E25D5C61E79B8E0B Accuracy: -m0 Conclusion: CDDA 100% Signature: 00332FA425AF59E6B2B35DE588ECEBBFB1104E67FILE: 04 - Ennio Morricone - Symonie avec Voix.flac Size: 24545518 Hash: 62163FF66398D0F341659B1956FAC340 Accuracy: -m0 Conclusion: CDDA 100% Signature: AF9CC71B6D6B3E23905DC0DD98981EE9A3212824FILE: 06 - Ennio Morricone - Theme de Vatel.flac Size: 9570579 Hash: 621284E6A3BE54FC3AA287068942BA1A Accuracy: -m0 Conclusion: CDDA 100% Signature: FC3B7ECE8FB01F6A837DAE0B5D37D3C487DF1804FILE: 08 - Ennio Morricone - Deuxieme Symphonie.flac Size: 15464071 Hash: 4260151F0803B33DC8ACD1D89F3CCB02 Accuracy: -m0 Conclusion: CDDA 99% Signature: 509E42C7493F8F046943DAEECE5CAF71F5500FA2FILE: 09 - Ennio Morricone - Fete et Cynisme.flac Size: 25220417 Hash: E9ED5D6CD6FA9558622DB4A83F6662BC Accuracy: -m0 Conclusion: CDDA 100% Signature: EB0A55F7436A302B9463F16EFE1DEB0DCEEBAE4AFILE: 07 - Ennio Morricone - Kaleidoscope.flac Size: 38249562 Hash: 96AE58CF199287ACF9FE9A2513E5D801 Accuracy: -m0 Conclusion: CDDA 100% Signature: 2157DA9500D4F49ED4EFA312A7246615295208D0FILE: 11 - Ennio Morricone - Secundo Pezzo.flac Size: 10923851 Hash: E4E1EB1F8A486D13CB799933894C3FEF Accuracy: -m0 Conclusion: CDDA 100% Signature: A72EEB334C7F6E319CEBE9AFD54A4BFACE9BEAFFFILE: 10 - Ennio Morricone - Hippolyte et Aricie 'Temple Sacre' Composed by Jean-Philipe Rameau.flac Size: 17253762 Hash: 86B5634E7CD9AF0207D136C095179A7D Accuracy: -m0 Conclusion: CDDA 100% Signature: F72B0F7C9B1FC321994B8B5EFFB79DD8ECEDE1CDFILE: 12 - Ennio Morricone - L'Air D'Absalom Composed by Giovanni Paolo Colonna.flac Size: 9481645 Hash: AE54556004BDBBE364A4A290B7FAE178 Accuracy: -m0 Conclusion: CDDA 99% Signature: DB283FC8F76D61A0C8E45C2A460A5C015B1AC862FILE: 13 - Ennio Morricone - Deux Courtisanes.flac Size: 19549245 Hash: 86C998E47436A157DD5C0B97CC0A9931 Accuracy: -m0 Conclusion: CDDA 100% Signature: 1165A88952222D0E2705E8CEF775BA50A5482C5AFILE: 14 - Ennio Morricone - Debut de la Fete.flac Size: 12323158 Hash: DA034421841A82F4A1C23D687CA736B3 Accuracy: -m0 Conclusion: CDDA 100% Signature: 5898745DC524EB9E47F59578E8FAEB2765E469DAFILE: 15 - Ennio Morricone - Ouverture de la Cour.flac Size: 11846998 Hash: 42FFD2BF5C4D3FCA54FDF54D204025BA Accuracy: -m0 Conclusion: CDDA 99% Signature: 6CD7A2B480EEF11C419CE9C1FAD250B4925856A1FILE: 16 - Ennio Morricone - La Bouree Composed by Jean-Philipe Rameau.flac Size: 10336226 Hash: 4BC2A04177C9B68EC0D18A5C73EAD3FD Accuracy: -m0 Conclusion: CDDA 100% Signature: 9C3A3315AA290E01FE741A2D3FD28CD1E57E0C93FILE: 17 - Ennio Morricone - Les Indes Galantes Composed by Jean-Philipe Rameau.flac Size: 10939873 Hash: E4C4D1D0C28854A2C5EB1607ADFE9987 Accuracy: -m0 Conclusion: CDDA 100% Signature: 7C4977E41A6B940C284FC12109BE1D52D9B6985BFILE: 18 - Ennio Morricone - The Royal Fireworks Composed by Georg Friedrich Händel.flac Size: 28421817 Hash: 7C9F42C4DD5586CEAEAD1B807AAAB994 Accuracy: -m0 Conclusion: CDDA 99% Signature: 70F9DC445E437C587EFDCFC209AE4B0E4D653ECF


Трекер:  [ 20-Дек-2010 13:07 ]

  

Скачать .torrent

Размер .torrent файла 14 KB


Размер: 303 MB
Хэш (hash) релиза: 5590fedee23ab248e9acf7effa69eb8cd17fbb1d

bot

Топик был перенесен в форум Саундтреки к фильмам и мультфильмам (lossless)

Перенес AqvaGen

Хотите добавить комментарий к записи скачать торрент Ватель Vatel

!Обратная связь