Скачать через торрент музыку Чужая территория Trespass - 1992, FLAC бесплатно без регистрации torrent

Если у вас наблюдаются проблемы со скриншотами, переходом по ссылками, скачиванием торрентов - проблемы в блокировщике рекламы AdBlock. #хорошегоДня!


Статистика раздачи
Размер:  367 MB   |    Зарегистрирован:  6 лет 9 месяцев   |    .torrent скачан:  42 раза   |   
Раздают:  1  
   
Загрузка...
 
Автор Сообщение

Mos

avatar Mos


Чужая территория / Trespass


Исполнитель: Various Artists (VA)
Альбом: Trespass
Дата выпуска: 1992
Жанр: Soundtrack
Формат: FLAC (tracks+cue)
Битрейт: lossless
Продолжительность: 00:50:32
Источник: скачано в паутине, ресурс и релизер затерялся в закоулках моей памяти

Треклист:
01. Ice-T And Ice Cube - Trespass [00:02:56]
02. Public Enemy - Gotta Do What I Gotta Do [00:04:44]
03. Ice-T Featuring Daddy Nitro - Depths Of Hell [00:05:15]
04. Sir Mix-A-Lot - I Check My Bank [00:04:08]
05. Penthouse Players Clique - I'm A Playa (Bitch) [00:04:07]
06. Black Sheep - On The Wall [00:05:34]
07. AMG - Don't Be A 304 [00:03:41]
08. Gang Starr (DJ Premier And The Guru) - Gotta Get Over (Taking Loot) [00:03:47]
09. Lord Finesse - You Know What I'm About [00:04:17]
10. Donald D - I'm Gonna Smoke Him [00:04:39]
11. W.C. And The Maad Circle - Quick Way Out [00:03:48]
12. Ry Cooder And Jim Keltner - King Of The Street [00:03:32]

 
Exact Audio Copy V0.99 prebeta 5 from 4. May 2009

EAC extraction logfile from 1. February 2010, 0:53

Various Artists / Trespass OST

Used drive : HL-DT-STDVD-RAM GH22NP20 Adapter: 1 ID: 1

Read mode : SecureUtilize accurate stream : YesDefeat audio cache : YesMake use of C2 pointers : No

Read offset correction : 102Overread into Lead-In and Lead-Out : NoFill up missing offset samples with silence : YesDelete leading and trailing silent blocks : NoNull samples used in CRC calculations : YesUsed interface : Installed external ASPI interfaceGap handling : Appended to previous track

Used output format : User Defined EncoderSelected bitrate : 1024 kBit/sQuality : HighAdd ID3 tag : NoCommand line compressor : C:\Program Files\Exact Audio Copy\FLAC\FLAC.EXEAdditional command line options : -3 -V -T "ARTIST=%a" -T "TITLE=%t" -T "ALBUM=%g" -T "DATE=%y" -T "TRACKNUMBER=%n" -T "GENRE=%m" -T "COMMENT=%e" %s -o %dUse compression offset : 48

TOC of the extracted CD

Track | Start | Length | Start sector | End sector --------------------------------------------------------- 1 | 0:00.00 | 2:56.20 | 0 | 13219 2 | 2:56.20 | 4:44.00 | 13220 | 34519 3 | 7:40.20 | 5:15.60 | 34520 | 58204 4 | 12:56.05 | 4:08.60 | 58205 | 76864 5 | 17:04.65 | 4:07.33 | 76865 | 95422 6 | 21:12.23 | 5:34.32 | 95423 | 120504 7 | 26:46.55 | 3:41.28 | 120505 | 137107 8 | 30:28.08 | 3:47.25 | 137108 | 154157 9 | 34:15.33 | 4:17.07 | 154158 | 173439 10 | 38:32.40 | 4:39.03 | 173440 | 194367 11 | 43:11.43 | 3:47.70 | 194368 | 211462 12 | 46:59.38 | 3:31.72 | 211463 | 227359

Track 1

Filename C:\New Folder\01. Ice-T And Ice Cube - Trespass.wav

Pre-gap length 0:00:02.00

Peak level 99.0 % Track quality 100.0 % Copy CRC 1E4BB420 Accurately ripped (confidence 5) [C07B5EE5] Copy OK

Track 2

Filename C:\New Folder\02. Public Enemy - Gotta Do What I Gotta Do.wav

Peak level 98.2 % Track quality 100.0 % Copy CRC 46179FBE Accurately ripped (confidence 5) [16302E4F] Copy OK

Track 3

Filename C:\New Folder\03. Ice-T Featuring Daddy Nitro - Depths Of Hell.wav

Pre-gap length 0:00:01.63

Peak level 100.0 % Track quality 99.9 % Copy CRC B2B115A1 Accurately ripped (confidence 5) [86BC56F5] Copy OK

Track 4

Filename C:\New Folder\04. Sir Mix-A-Lot - I Check My Bank.wav

Pre-gap length 0:00:01.51

Peak level 100.0 % Track quality 100.0 % Copy CRC C25DB983 Accurately ripped (confidence 5) [4A4E825A] Copy OK

Track 5

Filename C:\New Folder\05. Penthouse Players Clique - I'm A Playa (Bitch).wav

Pre-gap length 0:00:00.56

Peak level 100.0 % Track quality 100.0 % Copy CRC 3375B140 Accurately ripped (confidence 5) [00DF4272] Copy OK

Track 6

Filename C:\New Folder\06. Black Sheep - On The Wall.wav

Pre-gap length 0:01:14.33

Peak level 96.7 % Track quality 100.0 % Copy CRC 2AEFA8A6 Accurately ripped (confidence 5) [553DC1CA] Copy OK

Track 7

Filename C:\New Folder\07. AMG - Don't Be A 304.wav

Pre-gap length 0:00:03.02

Peak level 99.5 % Track quality 100.0 % Copy CRC 8AE64EA3 Accurately ripped (confidence 5) [DF1E5D1F] Copy OK

Track 8

Filename C:\New Folder\08. Gang Starr (DJ Premier And The Guru) - Gotta Get Over (Taking Loot).wav

Pre-gap length 0:00:01.31

Peak level 98.5 % Track quality 100.0 % Copy CRC 96D3C3C6 Accurately ripped (confidence 5) [AEFBD567] Copy OK

Track 9

Filename C:\New Folder\09. Lord Finesse - You Know What I'm About.wav

Pre-gap length 0:00:02.14

Peak level 98.1 % Track quality 100.0 % Copy CRC 7CE49AE7 Accurately ripped (confidence 5) [F2DBC4BC] Copy OK

Track 10

Filename C:\New Folder\10. Donald D - I'm Gonna Smoke Him.wav

Pre-gap length 0:00:02.52

Peak level 97.7 % Track quality 100.0 % Copy CRC 5730A5ED Accurately ripped (confidence 5) [19B71839] Copy OK

Track 11

Filename C:\New Folder\11. W.C. And The Maad Circle - Quick Way Out.wav

Pre-gap length 0:00:02.16

Peak level 97.6 % Track quality 100.0 % Copy CRC CD99D737 Accurately ripped (confidence 5) [598CE46C] Copy OK

Track 12

Filename C:\New Folder\12. Ry Cooder And Jim Keltner - King Of The Street.wav

Pre-gap length 0:00:01.43

Peak level 99.4 % Track quality 100.0 % Copy CRC 602599A8 Accurately ripped (confidence 5) [F74CD491] Copy OK

All tracks accurately ripped

No errors occurred

End of status report
 
REM GENRE SoundtrackREM DATE 1992REM DISCID 9E0BD70CREM COMMENT "ExactAudioCopy v0.99pb5"PERFORMER "Various Artists"TITLE "Trespass OST"FILE "01. Ice-T And Ice Cube - Trespass.wav" WAVE TRACK 01 AUDIO TITLE "Trespass" PERFORMER "Ice-T And Ice Cube" INDEX 01 00:00:00FILE "02. Public Enemy - Gotta Do What I Gotta Do.wav" WAVE TRACK 02 AUDIO TITLE "Gotta Do What I Gotta Do" PERFORMER "Public Enemy" INDEX 01 00:00:00 TRACK 03 AUDIO TITLE "Depths Of Hell" PERFORMER "Ice-T Featuring Daddy Nitro" INDEX 00 04:42:12FILE "03. Ice-T Featuring Daddy Nitro - Depths Of Hell.wav" WAVE INDEX 01 00:00:00 TRACK 04 AUDIO TITLE "I Check My Bank" PERFORMER "Sir Mix-A-Lot" INDEX 00 05:14:09FILE "04. Sir Mix-A-Lot - I Check My Bank.wav" WAVE INDEX 01 00:00:00 TRACK 05 AUDIO TITLE "I'm A Playa (Bitch)" PERFORMER "Penthouse Players Clique" INDEX 00 04:08:04FILE "05. Penthouse Players Clique - I'm A Playa (Bitch).wav" WAVE INDEX 01 00:00:00 TRACK 06 AUDIO TITLE "On The Wall" PERFORMER "Black Sheep" INDEX 00 02:53:00FILE "06. Black Sheep - On The Wall.wav" WAVE INDEX 01 00:00:00 TRACK 07 AUDIO TITLE "Don't Be A 304" PERFORMER "AMG" INDEX 00 05:31:30FILE "07. AMG - Don't Be A 304.wav" WAVE INDEX 01 00:00:00 TRACK 08 AUDIO TITLE "Gotta Get Over (Taking Loot)" PERFORMER "Gang Starr (DJ Premier And The Guru)" INDEX 00 03:39:72FILE "08. Gang Starr (DJ Premier And The Guru) - Gotta Get Over (Taking Loot).wav" WAVE INDEX 01 00:00:00 TRACK 09 AUDIO TITLE "You Know What I'm About" PERFORMER "Lord Finesse" INDEX 00 03:45:11FILE "09. Lord Finesse - You Know What I'm About.wav" WAVE INDEX 01 00:00:00 TRACK 10 AUDIO TITLE "I'm Gonna Smoke Him" PERFORMER "Donald D" INDEX 00 04:14:30FILE "10. Donald D - I'm Gonna Smoke Him.wav" WAVE INDEX 01 00:00:00 TRACK 11 AUDIO TITLE "Quick Way Out" PERFORMER "W.C. And The Maad Circle" INDEX 00 04:36:62FILE "11. W.C. And The Maad Circle - Quick Way Out.wav" WAVE INDEX 01 00:00:00 TRACK 12 AUDIO TITLE "King Of The Street" PERFORMER "Ry Cooder And Jim Keltner" INDEX 00 03:46:27FILE "12. Ry Cooder And Jim Keltner - King Of The Street.wav" WAVE INDEX 01 00:00:00
 
AUDIOCHECKER v2.0 beta (build 457) - by Dester - opdester@freemail.hu~~~~~~~~~~~~~~~~~~~~~~~~~~~~~~~~~~-=== НЕ РЕДАКТИРУЙТЕ ЭТОТ ФАЙЛ! ===-

Путь: ...\VA - Trespass OST (1992)

01 -=- 01. Ice-T And Ice Cube - Trespass.flac -=- CDDA (100%)02 -=- 02. Public Enemy - Gotta Do What I Gotta Do.flac -=- CDDA (100%)03 -=- 03. Ice-T Featuring Daddy Nitro - Depths Of Hell.flac -=- CDDA (100%)04 -=- 04. Sir Mix-A-Lot - I Check My Bank.flac -=- CDDA (100%)05 -=- 05. Penthouse Players Clique - I'm A Playa (Bitch).flac -=- CDDA (100%)06 -=- 06. Black Sheep - On The Wall.flac -=- CDDA (100%)07 -=- 07. AMG - Don't Be A 304.flac -=- CDDA (100%)08 -=- 08. Gang Starr (DJ Premier And The Guru) - Gotta Get Over (Taking Loot).flac -=- CDDA (100%)09 -=- 09. Lord Finesse - You Know What I'm About.flac -=- CDDA (99%)10 -=- 10. Donald D - I'm Gonna Smoke Him.flac -=- CDDA (100%)11 -=- 11. W.C. And The Maad Circle - Quick Way Out.flac -=- CDDA (99%)12 -=- 12. Ry Cooder And Jim Keltner - King Of The Street.flac -=- CDDA (100%)

Сводка 99,83% CDDA

150107700


Трекер:  [ 21-Дек-2010 13:36 ]

  

Скачать .torrent

Размер .torrent файла 16 KB


Размер: 367 MB
Хэш (hash) релиза: 535c73c3a6082ec2c757eb85ae73f7ccce3dee03

bot

Топик был перенесен в форум Саундтреки к фильмам и мультфильмам (lossless)

Перенес Mos

Хотите добавить комментарий к записи скачать торрент Чужая территория Trespass - 1992, FLAC

!Обратная связь