Скачать через торрент музыку I Know What You Did Last Summer Я знаю, что вы сделали прошлым летом бесплатно без регистрации torrent

Если у вас наблюдаются проблемы со скриншотами, переходом по ссылками, скачиванием торрентов - проблемы в блокировщике рекламы AdBlock. #хорошегоДня!


Статистика раздачи
Размер:  269 MB   |    Зарегистрирован:  6 лет 8 месяцев   |    .torrent скачан:  53 раза   |   
Раздают:  1  
   
Загрузка...
 
Автор Сообщение

Mos

avatar Mos


I Know What You Did Last Summer / Я знаю, что вы сделали прошлым летом (John Debney)

Жанр: Score
Год выпуска диска: 1997
Производитель диска: USA
Аудио кодек: FLAC
Тип рипа: tracks+.cue
Битрейт аудио: lossless
Продолжительность: 1:08:53
01 - A Young Man On The Edge [2:27]
02 - Cautionary Tale [1:59]
03 - The Collision [:29]
04 - Road Kill [3:54]
05 - Hiding The Body [3:17]
06 - Barry's Underwater Adventure [2:37]
07 - Homecoming [:57]
08 - Better Days [:48]
09 - The Night Softly Whispers [1:52]
10 - The Note [1:42]
11 - His Name Was... [1:16]
12 - Barry's Threat [1:34]
13 - Crabhouse Gaffing [1:13]
14 - Someone's Watchin' / Chased [3:33]
15 - Julie Sees A Cop [:16]
16 - Here Comes Missy [1:56]
17 - Missy's Story [2:15]
18 - Fond Memories [:46]
19 - The Houseguest [2:00]
20 - A Little Trim / Trunk Surprise [3:14]
21 - Taking A Stand [1:12]
22 - Ray On The Spot [:20]
23 - The One That Got Away [:55]
24 - Missy's Home / Threatening Gestures [2:30]
25 - You Didn't See Anything [1:12]
26 - Barry The Protector [:29]
27 - The Reaper Awaits [:20]
28 - Gaffing Barry [:57]
29 - Car Trouble [2:21]
30 - In Pursuit Of Helen [2:53]
31 - Catch And Release [:50]
32 - No Escape For Helen [2:36]
33 - Julie Discovers The Truth [3:25]
34 - Julie Takes A Cruise [3:00]
35 - Final Confrontation [4:09]
36 - A New Beginning (Julie's Theme) [1:56]
37 - Julie Takes A Shower [1:24]

Exact Audio Copy V0.99 prebeta 5 from 4. May 2009

EAC extraction logfile from 7. November 2009, 13:14

John Debney / I Know What You Did Last Summer

Used drive : Optiarc DVD RW AD-7170A Adapter: 0 ID: 0

Read mode : Secure
Utilize accurate stream : Yes
Defeat audio cache : Yes
Make use of C2 pointers : No

Read offset correction : 48
Overread into Lead-In and Lead-Out : No
Fill up missing offset samples with silence : Yes
Delete leading and trailing silent blocks : No
Null samples used in CRC calculations : Yes
Used interface : Native Win32 interface for Win NT & 2000
Gap handling : Appended to previous track

Used output format : User Defined Encoder
Selected bitrate : 320 kBit/s
Quality : High
Add ID3 tag : No
Command line compressor : C:\Program Files\Exact Audio Copy\Flac\flac.exe
Additional command line options : -8 -V -T "ARTIST=%a" -T "TITLE=%t" -T "ALBUM=%g" -T "DATE=%y" -T "TRACKNUMBER=%n" -T "GENRE=%m" -T "COMMENT=EAC FLAC -8" %s

TOC of the extracted CD

Track | Start | Length | Start sector | End sector
---------------------------------------------------------
1 | 0:00.00 | 2:27.27 | 0 | 11051
2 | 2:27.27 | 1:59.59 | 11052 | 20035
3 | 4:27.11 | 0:29.55 | 20036 | 22265
4 | 4:56.66 | 3:54.45 | 22266 | 39860
5 | 8:51.36 | 3:17.45 | 39861 | 54680
6 | 12:09.06 | 2:37.22 | 54681 | 66477
7 | 14:46.28 | 0:57.23 | 66478 | 70775
8 | 15:43.51 | 0:48.52 | 70776 | 74427
9 | 16:32.28 | 1:52.45 | 74428 | 82872
10 | 18:24.73 | 1:42.23 | 82873 | 90545
11 | 20:07.21 | 1:16.07 | 90546 | 96252
12 | 21:23.28 | 1:34.30 | 96253 | 103332
13 | 22:57.58 | 1:13.35 | 103333 | 108842
14 | 24:11.18 | 3:33.50 | 108843 | 124867
15 | 27:44.68 | 0:16.55 | 124868 | 126122
16 | 28:01.48 | 1:56.55 | 126123 | 134877
17 | 29:58.28 | 2:15.50 | 134878 | 145052
18 | 32:14.03 | 0:47.00 | 145053 | 148577
19 | 33:01.03 | 2:00.20 | 148578 | 157597
20 | 35:01.23 | 3:15.00 | 157598 | 172222
21 | 38:16.23 | 1:12.40 | 172223 | 177662
22 | 39:28.63 | 0:20.35 | 177663 | 179197
23 | 39:49.23 | 0:55.05 | 179198 | 183327
24 | 40:44.28 | 2:30.35 | 183328 | 194612
25 | 43:14.63 | 1:12.10 | 194613 | 200022
26 | 44:26.73 | 0:29.63 | 200023 | 202260
27 | 44:56.61 | 0:20.50 | 202261 | 203810
28 | 45:17.36 | 0:57.15 | 203811 | 208100
29 | 46:14.51 | 2:21.57 | 208101 | 218732
30 | 48:36.33 | 2:54.00 | 218733 | 231782
31 | 51:30.33 | 0:50.20 | 231783 | 235552
32 | 52:20.53 | 2:36.38 | 235553 | 247290
33 | 54:57.16 | 3:25.30 | 247291 | 262695
34 | 58:22.46 | 3:00.50 | 262696 | 276245
35 | 61:23.21 | 4:09.55 | 276246 | 294975
36 | 65:33.01 | 1:56.07 | 294976 | 303682
37 | 67:29.08 | 1:24.35 | 303683 | 310017

Track 1

Filename E:\DownLoad\SoundTrack_I Know What You Did Last Summer\ 01. John Debney – A Young Man On The Edge.wav

Pre-gap length 0:00:02.00

Peak level 77.4 %
Track quality 100.0 %
Test CRC 726CC251
Copy CRC 726CC251
Copy OK

Track 2

Filename E:\DownLoad\SoundTrack_I Know What You Did Last Summer\ 02. John Debney – Cautionary Tale.wav

Peak level 32.7 %
Track quality 100.0 %
Test CRC E5F84BA0
Copy CRC E5F84BA0
Copy OK

Track 3

Filename E:\DownLoad\SoundTrack_I Know What You Did Last Summer\ 03. John Debney – The Collision.wav

Peak level 96.5 %
Track quality 100.0 %
Test CRC BDE7A9D3
Copy CRC BDE7A9D3
Copy OK

Track 4

Filename E:\DownLoad\SoundTrack_I Know What You Did Last Summer\ 04. John Debney – Road Kill.wav

Peak level 33.7 %
Track quality 100.0 %
Test CRC 220025B5
Copy CRC 220025B5
Copy OK

Track 5

Filename E:\DownLoad\SoundTrack_I Know What You Did Last Summer\ 05. John Debney – Hiding The Body.wav

Peak level 59.1 %
Track quality 100.0 %
Test CRC 61782657
Copy CRC 61782657
Copy OK

Track 6

Filename E:\DownLoad\SoundTrack_I Know What You Did Last Summer\ 06. John Debney – Barry's Underwater Adventure.wav

Peak level 97.2 %
Track quality 100.0 %
Test CRC 5BA89A04
Copy CRC 5BA89A04
Copy OK

Track 7

Filename E:\DownLoad\SoundTrack_I Know What You Did Last Summer\ 07. John Debney – Homecoming.wav

Peak level 37.6 %
Track quality 100.0 %
Test CRC 0C96F72E
Copy CRC 0C96F72E
Copy OK

Track 8

Filename E:\DownLoad\SoundTrack_I Know What You Did Last Summer\ 08. John Debney – Better Days.wav

Peak level 10.0 %
Track quality 100.0 %
Test CRC 05F54D95
Copy CRC 05F54D95
Copy OK

Track 9

Filename E:\DownLoad\SoundTrack_I Know What You Did Last Summer\ 09. John Debney – The Night Softly Whispers.wav

Peak level 53.7 %
Track quality 100.0 %
Test CRC 07E956FD
Copy CRC 07E956FD
Copy OK

Track 10

Filename E:\DownLoad\SoundTrack_I Know What You Did Last Summer\ 10. John Debney – The Note.wav

Peak level 25.2 %
Track quality 100.0 %
Test CRC 35CA164F
Copy CRC 35CA164F
Copy OK

Track 11

Filename E:\DownLoad\SoundTrack_I Know What You Did Last Summer\ 11. John Debney – His Name Was....wav

Peak level 15.1 %
Track quality 100.0 %
Test CRC BE5910D7
Copy CRC BE5910D7
Copy OK

Track 12

Filename E:\DownLoad\SoundTrack_I Know What You Did Last Summer\ 12. John Debney – Barry's Threat.wav

Peak level 47.8 %
Track quality 100.0 %
Test CRC 69869874
Copy CRC 69869874
Copy OK

Track 13

Filename E:\DownLoad\SoundTrack_I Know What You Did Last Summer\ 13. John Debney – Crabhouse Gaffing.wav

Peak level 99.8 %
Track quality 100.0 %
Test CRC 36AB9E65
Copy CRC 36AB9E65
Copy OK

Track 14

Filename E:\DownLoad\SoundTrack_I Know What You Did Last Summer\ 14. John Debney – Someone's Watchin' , Chased.wav

Peak level 99.7 %
Track quality 100.0 %
Test CRC 3EE2023E
Copy CRC 3EE2023E
Copy OK

Track 15

Filename E:\DownLoad\SoundTrack_I Know What You Did Last Summer\ 15. John Debney – Julie Sees A Cop.wav

Peak level 12.5 %
Track quality 100.0 %
Test CRC 11B1C73A
Copy CRC 11B1C73A
Copy OK

Track 16

Filename E:\DownLoad\SoundTrack_I Know What You Did Last Summer\ 16. John Debney – Here Comes Missy.wav

Peak level 57.6 %
Track quality 100.0 %
Test CRC D4A475FE
Copy CRC D4A475FE
Copy OK

Track 17

Filename E:\DownLoad\SoundTrack_I Know What You Did Last Summer\ 17. John Debney – Missy's Story.wav

Peak level 52.1 %
Track quality 100.0 %
Test CRC CE6CB7DB
Copy CRC CE6CB7DB
Copy OK

Track 18

Filename E:\DownLoad\SoundTrack_I Know What You Did Last Summer\ 18. John Debney – Fond Memories.wav

Peak level 14.7 %
Track quality 100.0 %
Test CRC E8C36B11
Copy CRC E8C36B11
Copy OK

Track 19

Filename E:\DownLoad\SoundTrack_I Know What You Did Last Summer\ 19. John Debney – The Houseguest.wav

Peak level 84.7 %
Track quality 100.0 %
Test CRC 807AA631
Copy CRC 807AA631
Copy OK

Track 20

Filename E:\DownLoad\SoundTrack_I Know What You Did Last Summer\ 20. John Debney – A Little Trim , Trunk Surprise.wav

Peak level 99.4 %
Track quality 100.0 %
Test CRC C8C30D0E
Copy CRC C8C30D0E
Copy OK

Track 21

Filename E:\DownLoad\SoundTrack_I Know What You Did Last Summer\ 21. John Debney – Taking A Stand.wav

Peak level 61.2 %
Track quality 100.0 %
Test CRC B708DE0F
Copy CRC B708DE0F
Copy OK

Track 22

Filename E:\DownLoad\SoundTrack_I Know What You Did Last Summer\ 22. John Debney – Ray On The Spo.wav

Peak level 17.3 %
Track quality 100.0 %
Test CRC DD414904
Copy CRC DD414904
Copy OK

Track 23

Filename E:\DownLoad\SoundTrack_I Know What You Did Last Summer\ 23. John Debney – The One That Got Away.wav

Peak level 72.4 %
Track quality 100.0 %
Test CRC 8071387A
Copy CRC 8071387A
Copy OK

Track 24

Filename E:\DownLoad\SoundTrack_I Know What You Did Last Summer\ 24. John Debney – Missy's Home , Threatening Gestures.wav

Peak level 81.8 %
Track quality 100.0 %
Test CRC C715036F
Copy CRC C715036F
Copy OK

Track 25

Filename E:\DownLoad\SoundTrack_I Know What You Did Last Summer\ 25. John Debney – You Didn't See Anything.wav

Peak level 21.5 %
Track quality 100.0 %
Test CRC 5E6E9C5D
Copy CRC 5E6E9C5D
Copy OK

Track 26

Filename E:\DownLoad\SoundTrack_I Know What You Did Last Summer\ 26. John Debney – Barry The Protector.wav

Peak level 9.6 %
Track quality 100.0 %
Test CRC 67F547DC
Copy CRC 67F547DC
Copy OK

Track 27

Filename E:\DownLoad\SoundTrack_I Know What You Did Last Summer\ 27. John Debney – The Reaper Awaits.wav

Peak level 28.0 %
Track quality 100.0 %
Test CRC 2B2FE2E2
Copy CRC 2B2FE2E2
Copy OK

Track 28

Filename E:\DownLoad\SoundTrack_I Know What You Did Last Summer\ 28. John Debney – Gaffing Barry.wav

Peak level 90.3 %
Track quality 100.0 %
Test CRC 35954F93
Copy CRC 35954F93
Copy OK

Track 29

Filename E:\DownLoad\SoundTrack_I Know What You Did Last Summer\ 29. John Debney – Car Trouble.wav

Peak level 81.7 %
Track quality 99.9 %
Test CRC E2DBB974
Copy CRC E2DBB974
Copy OK

Track 30

Filename E:\DownLoad\SoundTrack_I Know What You Did Last Summer\ 30. John Debney – In Pursuit Of Helen.wav

Peak level 91.2 %
Track quality 99.9 %
Test CRC 7032D513
Copy CRC 7032D513
Copy OK

Track 31

Filename E:\DownLoad\SoundTrack_I Know What You Did Last Summer\ 31. John Debney – Catch And Release.wav

Peak level 93.3 %
Track quality 100.0 %
Test CRC A00F962B
Copy CRC A00F962B
Copy OK

Track 32

Filename E:\DownLoad\SoundTrack_I Know What You Did Last Summer\ 32. John Debney – No Escape For Helen.wav

Peak level 95.4 %
Track quality 100.0 %
Test CRC 7C1BDF60
Copy CRC 7C1BDF60
Copy OK

Track 33

Filename E:\DownLoad\SoundTrack_I Know What You Did Last Summer\ 33. John Debney – Julie Discovers The Truth.wav

Peak level 94.6 %
Track quality 100.0 %
Test CRC 4E2B4CA5
Copy CRC 4E2B4CA5
Copy OK

Track 34

Filename E:\DownLoad\SoundTrack_I Know What You Did Last Summer\ 34. John Debney – Julie Takes A Cruise.wav

Peak level 89.0 %
Track quality 99.9 %
Test CRC 6C99FC4F
Copy CRC 6C99FC4F
Copy OK

Track 35

Filename E:\DownLoad\SoundTrack_I Know What You Did Last Summer\ 35. John Debney – Final Confrontation.wav

Peak level 99.8 %
Track quality 99.9 %
Test CRC AACEA2F2
Copy CRC AACEA2F2
Copy OK

Track 36

Filename E:\DownLoad\SoundTrack_I Know What You Did Last Summer\ 36. John Debney – A New Beginning (Julie's Theme).wav

Peak level 22.5 %
Track quality 100.0 %
Test CRC 495B6907
Copy CRC 495B6907
Copy OK

Track 37

Filename E:\DownLoad\SoundTrack_I Know What You Did Last Summer\ 37. John Debney – Julie Takes A Shower.wav

Peak level 90.7 %
Track quality 100.0 %
Test CRC 8E12B1C9
Copy CRC 8E12B1C9
Copy OK

No errors occurred

End of status report

Приобретайте, пожалуйста, легальные диски, которые вне всякого сомнения станут достойным украшением Вашей коллекции!
В соответствие с ФЗ "Об авторском праве и смежных правах", Вы должны удалить все вышеозначенные трэки со своего жесткого диска и иных носителей сразу после ознакомления.


Трекер:  [ 26-Дек-2010 13:44 ]

  

Скачать .torrent

Размер .torrent файла 14 KB


Размер: 269 MB
Хэш (hash) релиза: 4b2278e912fa971e403ddfdf0c3c519f52c75d24

Еще никто не оставлял запись к записи скачать торрент I Know What You Did Last Summer Я знаю, что вы сделали прошлым летом . Будь первым!

!Обратная связь