Скачать через торрент музыку Erich Kunzel and the Cincinnati Pops Orchestra - Symphonic Star Trek - 1996, FLAC бесплатно без регистрации torrent

Если у вас наблюдаются проблемы со скриншотами, переходом по ссылками, скачиванием торрентов - проблемы в блокировщике рекламы AdBlock. #хорошегоДня!


Статистика раздачи
Размер:  354 MB   |    Зарегистрирован:  6 лет 11 месяцев   |    .torrent скачан:  48 раз   |   
Раздают:  1  
   
Загрузка...
 
Автор Сообщение

Mos

avatar Mos


Symphonic Star Trek
Erich Kunzel and the Cincinnati Pops Orchestra


Жанр: Score | Год выпуска диска: 1996 | Издатель (лейбл): Telarc | Номер по каталогу: CD-80383
Аудио кодек: FLAC (*.flac) | Тип рипа: tracks+.cue | Битрейт аудио: lossless
Продолжительность: 01:12:04
Источник: WhatCD

01. Into The Final Frontier [01:14]
02. Main Them From Star Trek: The Next Generation [01:43]
03. Warp-One [00:15]
04. End Title From Star Trek VI: The Undiscovered Country [04:54]
05. The Desctruction Of Praxis [01:06]
06. Main Theme From Star Trek: Voyager [01:42]
07. Starship Flyby [00:13]
08. Main Theme From Star Trek: Deep Space Nine [02:00]
09. Alien Probe [00:47]
10. Humpback Whale Song [01:27]
11. Main Title From Star Trek IV: The Voyage Home [02:45]
12. Main Theme From Star Trek (Original TV Series) [03:45]
13. Tribble Trouble [00:40]
14. Suite From Star Trek II - Main Title [03:16]
15. Suite From Star Trek II - Epilogue [03:04]
16. Suite From Star Trek II - End Credits [05:40]
17. Suite From Star Trek II - Bird Of Prey Decloaking [00:15]
18. The Klingon Battle From Star Trek: The Motion Picture [05:26]
19. Main Theme From Star Trek: The Motion Picture [03:51]
20. Warp-Eight [01:06]
21. A Busy Man From Star Trek V: The Final Frontier [04:14]
22. Genesis Project - The Creation And Evolution Of Tinsis [02:59]
23. Suite From The Menagerie (Original TV Pilot) [07:32]
24. Transporter [00:25]
25. Main Theme From Star Trek III: The Search For Spock [06:08]
26. Nexus Energy Ribbon [00:59]
27. End Title From Star Trek: Generations [04:15]
28. The Borg (Bonustrack) [00:10]
 
Exact Audio Copy V0.99 prebeta 4 from 23. January 2008

EAC extraction logfile from 16. September 2010, 22:57

Erich Kunzel & Cincinnati Pops Orchestra / Symphonic Star Trek

Used drive : HL-DT-STDVD+-RW GSA-H31N Adapter: 3 ID: 0

Read mode : SecureUtilize accurate stream : YesDefeat audio cache : YesMake use of C2 pointers : No

Read offset correction : 102Overread into Lead-In and Lead-Out : NoFill up missing offset samples with silence : YesDelete leading and trailing silent blocks : NoNull samples used in CRC calculations : YesUsed interface : Native Win32 interface for Win NT & 2000Gap handling : Appended to previous track

Used output format : User Defined EncoderSelected bitrate : 128 kBit/sQuality : HighAdd ID3 tag : NoCommand line compressor : C:\Program Files\Exact Audio Copy\Flac\flac.exeAdditional command line options : -V -8 -T "artist=%a" -T "title=%t" -T "album=%g" -T "date=%y" -T "tracknumber=%n" -T "genre=%m" %s

TOC of the extracted CD

Track | Start | Length | Start sector | End sector --------------------------------------------------------- 1 | 0:00.00 | 1:14.35 | 0 | 5584 2 | 1:14.35 | 1:43.38 | 5585 | 13347 3 | 2:57.73 | 0:15.17 | 13348 | 14489 4 | 3:13.15 | 4:54.35 | 14490 | 36574 5 | 8:07.50 | 1:06.30 | 36575 | 41554 6 | 9:14.05 | 1:42.25 | 41555 | 49229 7 | 10:56.30 | 0:13.58 | 49230 | 50262 8 | 11:10.13 | 2:00.45 | 50263 | 59307 9 | 13:10.58 | 0:47.72 | 59308 | 62904 10 | 13:58.55 | 1:27.00 | 62905 | 69429 11 | 15:25.55 | 2:45.00 | 69430 | 81804 12 | 18:10.55 | 3:45.38 | 81805 | 98717 13 | 21:56.18 | 0:40.47 | 98718 | 101764 14 | 22:36.65 | 3:16.13 | 101765 | 116477 15 | 25:53.03 | 3:04.12 | 116478 | 130289 16 | 28:57.15 | 5:40.55 | 130290 | 155844 17 | 34:37.70 | 0:15.60 | 155845 | 157029 18 | 34:53.55 | 5:26.50 | 157030 | 181529 19 | 40:20.30 | 3:51.18 | 181530 | 198872 20 | 44:11.48 | 1:06.00 | 198873 | 203822 21 | 45:17.48 | 4:14.62 | 203823 | 222934 22 | 49:32.35 | 2:59.10 | 222935 | 236369 23 | 52:31.45 | 7:32.73 | 236370 | 270342 24 | 60:04.43 | 0:25.50 | 270343 | 272267 25 | 60:30.18 | 6:08.47 | 272268 | 299914 26 | 66:38.65 | 0:59.18 | 299915 | 304357 27 | 67:38.08 | 4:15.60 | 304358 | 323542 28 | 71:53.68 | 0:10.55 | 323543 | 324347

Track 1

Filename C:\Users\David\Documents\Erich Kunzel & Cincinnati Pops Orchestra-Symphonic Star Trek\01-Into The Final Frontier.wav

Pre-gap length 0:00:02.00

Peak level 100.0 % Track quality 100.0 % Test CRC 51FE117D Copy CRC 51FE117D Accurately ripped (confidence 9) [0F553066] Copy OK

Track 2

Filename C:\Users\David\Documents\Erich Kunzel & Cincinnati Pops Orchestra-Symphonic Star Trek\02-Main Them From Star Trek- The Next Generation.wav

Pre-gap length 0:00:01.82

Peak level 100.0 % Track quality 100.0 % Test CRC CB1CD5C3 Copy CRC CB1CD5C3 Accurately ripped (confidence 9) [A8D20904] Copy OK

Track 3

Filename C:\Users\David\Documents\Erich Kunzel & Cincinnati Pops Orchestra-Symphonic Star Trek\03-Warp-One.wav

Pre-gap length 0:00:00.04

Peak level 100.0 % Track quality 100.0 % Test CRC 74C385F8 Copy CRC 74C385F8 Accurately ripped (confidence 9) [15BD9550] Copy OK

Track 4

Filename C:\Users\David\Documents\Erich Kunzel & Cincinnati Pops Orchestra-Symphonic Star Trek\04-End Title From Star Trek VI- The Undiscovered Country.wav

Peak level 100.0 % Track quality 100.0 % Test CRC 6BC226ED Copy CRC 6BC226ED Accurately ripped (confidence 9) [C770C8AD] Copy OK

Track 5

Filename C:\Users\David\Documents\Erich Kunzel & Cincinnati Pops Orchestra-Symphonic Star Trek\05-The Desctruction Of Praxis.wav

Pre-gap length 0:00:00.02

Peak level 100.0 % Track quality 99.8 % Test CRC ACB7A006 Copy CRC ACB7A006 Accurately ripped (confidence 9) [C1AD3DD8] Copy OK

Track 6

Filename C:\Users\David\Documents\Erich Kunzel & Cincinnati Pops Orchestra-Symphonic Star Trek\06-Main Theme From Star Trek- Voyager.wav

Pre-gap length 0:00:03.42

Peak level 100.0 % Track quality 100.0 % Test CRC 45EF2310 Copy CRC 45EF2310 Accurately ripped (confidence 9) [AC86AB36] Copy OK

Track 7

Filename C:\Users\David\Documents\Erich Kunzel & Cincinnati Pops Orchestra-Symphonic Star Trek\07-Starship Flyby.wav

Pre-gap length 0:00:00.42

Peak level 100.0 % Track quality 100.0 % Test CRC E43710A4 Copy CRC E43710A4 Accurately ripped (confidence 9) [827DD1B4] Copy OK

Track 8

Filename C:\Users\David\Documents\Erich Kunzel & Cincinnati Pops Orchestra-Symphonic Star Trek\08-Main Theme From Star Trek- Deep Space Nine.wav

Pre-gap length 0:00:00.52

Peak level 100.0 % Track quality 100.0 % Test CRC B6ACCD8C Copy CRC B6ACCD8C Accurately ripped (confidence 9) [31781985] Copy OK

Track 9

Filename C:\Users\David\Documents\Erich Kunzel & Cincinnati Pops Orchestra-Symphonic Star Trek\09-Alien Probe.wav

Pre-gap length 0:00:00.13

Peak level 100.0 % Track quality 100.0 % Test CRC 01CD50AB Copy CRC 01CD50AB Accurately ripped (confidence 9) [2783F3CF] Copy OK

Track 10

Filename C:\Users\David\Documents\Erich Kunzel & Cincinnati Pops Orchestra-Symphonic Star Trek\10-Humpback Whale Song.wav

Peak level 42.9 % Track quality 99.8 % Test CRC 4658C105 Copy CRC 4658C105 Accurately ripped (confidence 9) [EFB81BEF] Copy OK

Track 11

Filename C:\Users\David\Documents\Erich Kunzel & Cincinnati Pops Orchestra-Symphonic Star Trek\11-Main Title From Star Trek IV- The Voyage Home.wav

Peak level 100.0 % Track quality 100.0 % Test CRC 9ACC5565 Copy CRC 9ACC5565 Accurately ripped (confidence 9) [FF1E658A] Copy OK

Track 12

Filename C:\Users\David\Documents\Erich Kunzel & Cincinnati Pops Orchestra-Symphonic Star Trek\12-Main Theme From Star Trek (Original TV Series).wav

Pre-gap length 0:00:03.09

Peak level 100.0 % Track quality 100.0 % Test CRC A5724FC7 Copy CRC A5724FC7 Accurately ripped (confidence 9) [050229A9] Copy OK

Track 13

Filename C:\Users\David\Documents\Erich Kunzel & Cincinnati Pops Orchestra-Symphonic Star Trek\13-Tribble Trouble.wav

Pre-gap length 0:00:01.10

Peak level 100.0 % Track quality 100.0 % Test CRC 907B165F Copy CRC 907B165F Accurately ripped (confidence 9) [E10CCF69] Copy OK

Track 14

Filename C:\Users\David\Documents\Erich Kunzel & Cincinnati Pops Orchestra-Symphonic Star Trek\14-Suite From Star Trek II - Main Title.wav

Pre-gap length 0:00:03.22

Peak level 100.0 % Track quality 100.0 % Test CRC 17F8BE5B Copy CRC 17F8BE5B Accurately ripped (confidence 9) [63815D76] Copy OK

Track 15

Filename C:\Users\David\Documents\Erich Kunzel & Cincinnati Pops Orchestra-Symphonic Star Trek\15-Suite From Star Trek II - Epilogue.wav

Peak level 71.8 % Track quality 100.0 % Test CRC F1800816 Copy CRC F1800816 Accurately ripped (confidence 9) [72CA1461] Copy OK

Track 16

Filename C:\Users\David\Documents\Erich Kunzel & Cincinnati Pops Orchestra-Symphonic Star Trek\16-Suite From Star Trek II - End Credits.wav

Peak level 100.0 % Track quality 100.0 % Test CRC 6E96694B Copy CRC 6E96694B Accurately ripped (confidence 9) [2A850C04] Copy OK

Track 17

Filename C:\Users\David\Documents\Erich Kunzel & Cincinnati Pops Orchestra-Symphonic Star Trek\17-Suite From Star Trek II - Bird Of Prey Decloaking.wav

Pre-gap length 0:00:00.29

Peak level 100.0 % Track quality 100.0 % Test CRC DB73254F Copy CRC DB73254F Accurately ripped (confidence 9) [342BF0B2] Copy OK

Track 18

Filename C:\Users\David\Documents\Erich Kunzel & Cincinnati Pops Orchestra-Symphonic Star Trek\18-The Klingon Battle From Star Trek- The Motion Picture.wav

Peak level 100.0 % Track quality 100.0 % Test CRC 972CF4A6 Copy CRC 972CF4A6 Accurately ripped (confidence 9) [FCD7291D] Copy OK

Track 19

Filename C:\Users\David\Documents\Erich Kunzel & Cincinnati Pops Orchestra-Symphonic Star Trek\19-Main Theme From Star Trek- The Motion Picture.wav

Peak level 100.0 % Track quality 100.0 % Test CRC BC1EAE8A Copy CRC BC1EAE8A Accurately ripped (confidence 9) [1B98CD2C] Copy OK

Track 20

Filename C:\Users\David\Documents\Erich Kunzel & Cincinnati Pops Orchestra-Symphonic Star Trek\20-Warp-Eight.wav

Pre-gap length 0:00:00.13

Peak level 100.0 % Track quality 100.0 % Test CRC 41FE3D0E Copy CRC 41FE3D0E Accurately ripped (confidence 9) [ECA54480] Copy OK

Track 21

Filename C:\Users\David\Documents\Erich Kunzel & Cincinnati Pops Orchestra-Symphonic Star Trek\21-A Busy Man From Star Trek V- The Final Frontier.wav

Peak level 49.8 % Track quality 100.0 % Test CRC 65ED1474 Copy CRC 65ED1474 Accurately ripped (confidence 9) [50CF1A9C] Copy OK

Track 22

Filename C:\Users\David\Documents\Erich Kunzel & Cincinnati Pops Orchestra-Symphonic Star Trek\22-Genesis Project - The Creation And Evolution Of Tinsis.wav

Pre-gap length 0:00:02.82

Peak level 100.0 % Track quality 100.0 % Test CRC 4900BF81 Copy CRC 4900BF81 Accurately ripped (confidence 9) [8E79BC2D] Copy OK

Track 23

Filename C:\Users\David\Documents\Erich Kunzel & Cincinnati Pops Orchestra-Symphonic Star Trek\23-Suite From The Menagerie (Original TV Pilot).wav

Pre-gap length 0:00:01.96

Peak level 100.0 % Track quality 100.0 % Test CRC CA0028AD Copy CRC CA0028AD Accurately ripped (confidence 9) [7BF6AC4B] Copy OK

Track 24

Filename C:\Users\David\Documents\Erich Kunzel & Cincinnati Pops Orchestra-Symphonic Star Trek\24-Transporter.wav

Pre-gap length 0:00:00.16

Peak level 48.8 % Track quality 100.0 % Test CRC 73449331 Copy CRC 73449331 Accurately ripped (confidence 9) [5C14B8B4] Copy OK

Track 25

Filename C:\Users\David\Documents\Erich Kunzel & Cincinnati Pops Orchestra-Symphonic Star Trek\25-Main Theme From Star Trek III- The Search For Spock.wav

Pre-gap length 0:00:00.06

Peak level 87.4 % Track quality 100.0 % Test CRC 341C109A Copy CRC 341C109A Accurately ripped (confidence 9) [74F682C6] Copy OK

Track 26

Filename C:\Users\David\Documents\Erich Kunzel & Cincinnati Pops Orchestra-Symphonic Star Trek\26-Nexus Energy Ribbon.wav

Pre-gap length 0:00:01.22

Peak level 100.0 % Track quality 100.0 % Test CRC F747345E Copy CRC F747345E Accurately ripped (confidence 9) [21B840D1] Copy OK

Track 27

Filename C:\Users\David\Documents\Erich Kunzel & Cincinnati Pops Orchestra-Symphonic Star Trek\27-End Title From Star Trek- Generations.wav

Peak level 100.0 % Track quality 100.0 % Test CRC 8C74717C Copy CRC 8C74717C Accurately ripped (confidence 9) [15EF4CBC] Copy OK

Track 28

Filename C:\Users\David\Documents\Erich Kunzel & Cincinnati Pops Orchestra-Symphonic Star Trek\28-The Borg (Bonustrack).wav

Pre-gap length 0:00:08.26

Peak level 72.4 % Track quality 100.0 % Test CRC 73B3EE3C Copy CRC 73B3EE3C Accurately ripped (confidence 9) [B3A2BF79] Copy OK

All tracks accurately ripped

No errors occurred

End of status report
 
REM GENRE SoundtrackREM DATE 1996REM DISCID 9E10E41CREM COMMENT "ExactAudioCopy v0.99pb4"PERFORMER "Erich Kunzel & Cincinnati Pops Orchestra"TITLE "Symphonic Star Trek"FILE "Erich Kunzel & Cincinnati Pops Orchestra-Symphonic Star Trek\01-Into The Final Frontier.flac" WAVE TRACK 01 AUDIO TITLE "Into The Final Frontier" PERFORMER "Erich Kunzel & Cincinnati Pops Orchestra" INDEX 01 00:00:00 TRACK 02 AUDIO TITLE "Main Them From Star Trek: The Next Generation" PERFORMER "Erich Kunzel & Cincinnati Pops Orchestra" INDEX 00 01:12:48FILE "Erich Kunzel & Cincinnati Pops Orchestra-Symphonic Star Trek\02-Main Them From Star Trek- The Next Generation.flac" WAVE INDEX 01 00:00:00 TRACK 03 AUDIO TITLE "Warp-One" PERFORMER "Erich Kunzel & Cincinnati Pops Orchestra" INDEX 00 01:43:35FILE "Erich Kunzel & Cincinnati Pops Orchestra-Symphonic Star Trek\03-Warp-One.flac" WAVE INDEX 01 00:00:00FILE "Erich Kunzel & Cincinnati Pops Orchestra-Symphonic Star Trek\04-End Title From Star Trek VI- The Undiscovered Country.flac" WAVE TRACK 04 AUDIO TITLE "End Title From Star Trek VI: The Undiscovered Country" PERFORMER "Erich Kunzel & Cincinnati Pops Orchestra" INDEX 01 00:00:00 TRACK 05 AUDIO TITLE "The Desctruction Of Praxis" PERFORMER "Erich Kunzel & Cincinnati Pops Orchestra" INDEX 00 04:54:33FILE "Erich Kunzel & Cincinnati Pops Orchestra-Symphonic Star Trek\05-The Desctruction Of Praxis.flac" WAVE INDEX 01 00:00:00 TRACK 06 AUDIO TITLE "Main Theme From Star Trek: Voyager" PERFORMER "Erich Kunzel & Cincinnati Pops Orchestra" INDEX 00 01:02:73FILE "Erich Kunzel & Cincinnati Pops Orchestra-Symphonic Star Trek\06-Main Theme From Star Trek- Voyager.flac" WAVE INDEX 01 00:00:00 TRACK 07 AUDIO TITLE "Starship Flyby" PERFORMER "Erich Kunzel & Cincinnati Pops Orchestra" INDEX 00 01:41:68FILE "Erich Kunzel & Cincinnati Pops Orchestra-Symphonic Star Trek\07-Starship Flyby.flac" WAVE INDEX 01 00:00:00 TRACK 08 AUDIO TITLE "Main Theme From Star Trek: Deep Space Nine" PERFORMER "Erich Kunzel & Cincinnati Pops Orchestra" INDEX 00 00:13:19FILE "Erich Kunzel & Cincinnati Pops Orchestra-Symphonic Star Trek\08-Main Theme From Star Trek- Deep Space Nine.flac" WAVE INDEX 01 00:00:00 TRACK 09 AUDIO TITLE "Alien Probe" PERFORMER "Erich Kunzel & Cincinnati Pops Orchestra" INDEX 00 02:00:35FILE "Erich Kunzel & Cincinnati Pops Orchestra-Symphonic Star Trek\09-Alien Probe.flac" WAVE INDEX 01 00:00:00FILE "Erich Kunzel & Cincinnati Pops Orchestra-Symphonic Star Trek\10-Humpback Whale Song.flac" WAVE TRACK 10 AUDIO TITLE "Humpback Whale Song" PERFORMER "Erich Kunzel & Cincinnati Pops Orchestra" INDEX 01 00:00:00FILE "Erich Kunzel & Cincinnati Pops Orchestra-Symphonic Star Trek\11-Main Title From Star Trek IV- The Voyage Home.flac" WAVE TRACK 11 AUDIO TITLE "Main Title From Star Trek IV: The Voyage Home" PERFORMER "Erich Kunzel & Cincinnati Pops Orchestra" INDEX 01 00:00:00 TRACK 12 AUDIO TITLE "Main Theme From Star Trek (Original TV Series)" PERFORMER "Erich Kunzel & Cincinnati Pops Orchestra" INDEX 00 02:41:68FILE "Erich Kunzel & Cincinnati Pops Orchestra-Symphonic Star Trek\12-Main Theme From Star Trek (Original TV Series).flac" WAVE INDEX 01 00:00:00 TRACK 13 AUDIO TITLE "Tribble Trouble" PERFORMER "Erich Kunzel & Cincinnati Pops Orchestra" INDEX 00 03:44:30FILE "Erich Kunzel & Cincinnati Pops Orchestra-Symphonic Star Trek\13-Tribble Trouble.flac" WAVE INDEX 01 00:00:00 TRACK 14 AUDIO TITLE "Suite From Star Trek II - Main Title" PERFORMER "Erich Kunzel & Cincinnati Pops Orchestra" INDEX 00 00:37:30FILE "Erich Kunzel & Cincinnati Pops Orchestra-Symphonic Star Trek\14-Suite From Star Trek II - Main Title.flac" WAVE INDEX 01 00:00:00FILE "Erich Kunzel & Cincinnati Pops Orchestra-Symphonic Star Trek\15-Suite From Star Trek II - Epilogue.flac" WAVE TRACK 15 AUDIO TITLE "Suite From Star Trek II - Epilogue" PERFORMER "Erich Kunzel & Cincinnati Pops Orchestra" INDEX 01 00:00:00FILE "Erich Kunzel & Cincinnati Pops Orchestra-Symphonic Star Trek\16-Suite From Star Trek II - End Credits.flac" WAVE TRACK 16 AUDIO TITLE "Suite From Star Trek II - End Credits" PERFORMER "Erich Kunzel & Cincinnati Pops Orchestra" INDEX 01 00:00:00 TRACK 17 AUDIO TITLE "Suite From Star Trek II - Bird Of Prey Decloaking" PERFORMER "Erich Kunzel & Cincinnati Pops Orchestra" INDEX 00 05:40:33FILE "Erich Kunzel & Cincinnati Pops Orchestra-Symphonic Star Trek\17-Suite From Star Trek II - Bird Of Prey Decloaking.flac" WAVE INDEX 01 00:00:00FILE "Erich Kunzel & Cincinnati Pops Orchestra-Symphonic Star Trek\18-The Klingon Battle From Star Trek- The Motion Picture.flac" WAVE TRACK 18 AUDIO TITLE "The Klingon Battle From Star Trek: The Motion Picture" PERFORMER "Erich Kunzel & Cincinnati Pops Orchestra" INDEX 01 00:00:00FILE "Erich Kunzel & Cincinnati Pops Orchestra-Symphonic Star Trek\19-Main Theme From Star Trek- The Motion Picture.flac" WAVE TRACK 19 AUDIO TITLE "Main Theme From Star Trek: The Motion Picture" PERFORMER "Erich Kunzel & Cincinnati Pops Orchestra" INDEX 01 00:00:00 TRACK 20 AUDIO TITLE "Warp-Eight" PERFORMER "Erich Kunzel & Cincinnati Pops Orchestra" INDEX 00 03:51:08FILE "Erich Kunzel & Cincinnati Pops Orchestra-Symphonic Star Trek\20-Warp-Eight.flac" WAVE INDEX 01 00:00:00FILE "Erich Kunzel & Cincinnati Pops Orchestra-Symphonic Star Trek\21-A Busy Man From Star Trek V- The Final Frontier.flac" WAVE TRACK 21 AUDIO TITLE "A Busy Man From Star Trek V: The Final Frontier" PERFORMER "Erich Kunzel & Cincinnati Pops Orchestra" INDEX 01 00:00:00 TRACK 22 AUDIO TITLE "Genesis Project - The Creation And Evolution Of Tinsis" PERFORMER "Erich Kunzel & Cincinnati Pops Orchestra" INDEX 00 04:12:00FILE "Erich Kunzel & Cincinnati Pops Orchestra-Symphonic Star Trek\22-Genesis Project - The Creation And Evolution Of Tinsis.flac" WAVE INDEX 01 00:00:00 TRACK 23 AUDIO TITLE "Suite From The Menagerie (Original TV Pilot)" PERFORMER "Erich Kunzel & Cincinnati Pops Orchestra" INDEX 00 02:57:13FILE "Erich Kunzel & Cincinnati Pops Orchestra-Symphonic Star Trek\23-Suite From The Menagerie (Original TV Pilot).flac" WAVE INDEX 01 00:00:00 TRACK 24 AUDIO TITLE "Transporter" PERFORMER "Erich Kunzel & Cincinnati Pops Orchestra" INDEX 00 07:32:61FILE "Erich Kunzel & Cincinnati Pops Orchestra-Symphonic Star Trek\24-Transporter.flac" WAVE INDEX 01 00:00:00 TRACK 25 AUDIO TITLE "Main Theme From Star Trek III: The Search For Spock" PERFORMER "Erich Kunzel & Cincinnati Pops Orchestra" INDEX 00 00:25:45FILE "Erich Kunzel & Cincinnati Pops Orchestra-Symphonic Star Trek\25-Main Theme From Star Trek III- The Search For Spock.flac" WAVE INDEX 01 00:00:00 TRACK 26 AUDIO TITLE "Nexus Energy Ribbon" PERFORMER "Erich Kunzel & Cincinnati Pops Orchestra" INDEX 00 06:07:30FILE "Erich Kunzel & Cincinnati Pops Orchestra-Symphonic Star Trek\26-Nexus Energy Ribbon.flac" WAVE INDEX 01 00:00:00FILE "Erich Kunzel & Cincinnati Pops Orchestra-Symphonic Star Trek\27-End Title From Star Trek- Generations.flac" WAVE TRACK 27 AUDIO TITLE "End Title From Star Trek: Generations" PERFORMER "Erich Kunzel & Cincinnati Pops Orchestra" INDEX 01 00:00:00 TRACK 28 AUDIO TITLE "The Borg (Bonustrack)" PERFORMER "Erich Kunzel & Cincinnati Pops Orchestra" INDEX 00 04:07:40FILE "Erich Kunzel & Cincinnati Pops Orchestra-Symphonic Star Trek\28-The Borg (Bonustrack).flac" WAVE INDEX 01 00:00:00
 
REM GENRE SoundtrackREM DATE 1996REM DISCID 9E10E41CREM COMMENT "ExactAudioCopy v0.99pb4"PERFORMER "Erich Kunzel & Cincinnati Pops Orchestra"TITLE "Symphonic Star Trek"FILE "01-Into The Final Frontier.wav" WAVE TRACK 01 AUDIO TITLE "Into The Final Frontier" PERFORMER "Erich Kunzel & Cincinnati Pops Orchestra" INDEX 01 00:00:00 TRACK 02 AUDIO TITLE "Main Them From Star Trek: The Next Generation" PERFORMER "Erich Kunzel & Cincinnati Pops Orchestra" INDEX 00 01:12:48FILE "02-Main Them From Star Trek- The Next Generation.wav" WAVE INDEX 01 00:00:00 TRACK 03 AUDIO TITLE "Warp-One" PERFORMER "Erich Kunzel & Cincinnati Pops Orchestra" INDEX 00 01:43:35FILE "03-Warp-One.wav" WAVE INDEX 01 00:00:00FILE "04-End Title From Star Trek VI- The Undiscovered Country.wav" WAVE TRACK 04 AUDIO TITLE "End Title From Star Trek VI: The Undiscovered Country" PERFORMER "Erich Kunzel & Cincinnati Pops Orchestra" INDEX 01 00:00:00 TRACK 05 AUDIO TITLE "The Desctruction Of Praxis" PERFORMER "Erich Kunzel & Cincinnati Pops Orchestra" INDEX 00 04:54:33FILE "05-The Desctruction Of Praxis.wav" WAVE INDEX 01 00:00:00 TRACK 06 AUDIO TITLE "Main Theme From Star Trek: Voyager" PERFORMER "Erich Kunzel & Cincinnati Pops Orchestra" INDEX 00 01:02:73FILE "06-Main Theme From Star Trek- Voyager.wav" WAVE INDEX 01 00:00:00 TRACK 07 AUDIO TITLE "Starship Flyby" PERFORMER "Erich Kunzel & Cincinnati Pops Orchestra" INDEX 00 01:41:68FILE "07-Starship Flyby.wav" WAVE INDEX 01 00:00:00 TRACK 08 AUDIO TITLE "Main Theme From Star Trek: Deep Space Nine" PERFORMER "Erich Kunzel & Cincinnati Pops Orchestra" INDEX 00 00:13:19FILE "08-Main Theme From Star Trek- Deep Space Nine.wav" WAVE INDEX 01 00:00:00 TRACK 09 AUDIO TITLE "Alien Probe" PERFORMER "Erich Kunzel & Cincinnati Pops Orchestra" INDEX 00 02:00:35FILE "09-Alien Probe.wav" WAVE INDEX 01 00:00:00FILE "10-Humpback Whale Song.wav" WAVE TRACK 10 AUDIO TITLE "Humpback Whale Song" PERFORMER "Erich Kunzel & Cincinnati Pops Orchestra" INDEX 01 00:00:00FILE "11-Main Title From Star Trek IV- The Voyage Home.wav" WAVE TRACK 11 AUDIO TITLE "Main Title From Star Trek IV: The Voyage Home" PERFORMER "Erich Kunzel & Cincinnati Pops Orchestra" INDEX 01 00:00:00 TRACK 12 AUDIO TITLE "Main Theme From Star Trek (Original TV Series)" PERFORMER "Erich Kunzel & Cincinnati Pops Orchestra" INDEX 00 02:41:68FILE "12-Main Theme From Star Trek (Original TV Series).wav" WAVE INDEX 01 00:00:00 TRACK 13 AUDIO TITLE "Tribble Trouble" PERFORMER "Erich Kunzel & Cincinnati Pops Orchestra" INDEX 00 03:44:30FILE "13-Tribble Trouble.wav" WAVE INDEX 01 00:00:00 TRACK 14 AUDIO TITLE "Suite From Star Trek II - Main Title" PERFORMER "Erich Kunzel & Cincinnati Pops Orchestra" INDEX 00 00:37:30FILE "14-Suite From Star Trek II - Main Title.wav" WAVE INDEX 01 00:00:00FILE "15-Suite From Star Trek II - Epilogue.wav" WAVE TRACK 15 AUDIO TITLE "Suite From Star Trek II - Epilogue" PERFORMER "Erich Kunzel & Cincinnati Pops Orchestra" INDEX 01 00:00:00FILE "16-Suite From Star Trek II - End Credits.wav" WAVE TRACK 16 AUDIO TITLE "Suite From Star Trek II - End Credits" PERFORMER "Erich Kunzel & Cincinnati Pops Orchestra" INDEX 01 00:00:00 TRACK 17 AUDIO TITLE "Suite From Star Trek II - Bird Of Prey Decloaking" PERFORMER "Erich Kunzel & Cincinnati Pops Orchestra" INDEX 00 05:40:33FILE "17-Suite From Star Trek II - Bird Of Prey Decloaking.wav" WAVE INDEX 01 00:00:00FILE "18-The Klingon Battle From Star Trek- The Motion Picture.wav" WAVE TRACK 18 AUDIO TITLE "The Klingon Battle From Star Trek: The Motion Picture" PERFORMER "Erich Kunzel & Cincinnati Pops Orchestra" INDEX 01 00:00:00FILE "19-Main Theme From Star Trek- The Motion Picture.wav" WAVE TRACK 19 AUDIO TITLE "Main Theme From Star Trek: The Motion Picture" PERFORMER "Erich Kunzel & Cincinnati Pops Orchestra" INDEX 01 00:00:00 TRACK 20 AUDIO TITLE "Warp-Eight" PERFORMER "Erich Kunzel & Cincinnati Pops Orchestra" INDEX 00 03:51:08FILE "20-Warp-Eight.wav" WAVE INDEX 01 00:00:00FILE "21-A Busy Man From Star Trek V- The Final Frontier.wav" WAVE TRACK 21 AUDIO TITLE "A Busy Man From Star Trek V: The Final Frontier" PERFORMER "Erich Kunzel & Cincinnati Pops Orchestra" INDEX 01 00:00:00 TRACK 22 AUDIO TITLE "Genesis Project - The Creation And Evolution Of Tinsis" PERFORMER "Erich Kunzel & Cincinnati Pops Orchestra" INDEX 00 04:12:00FILE "22-Genesis Project - The Creation And Evolution Of Tinsis.wav" WAVE INDEX 01 00:00:00 TRACK 23 AUDIO TITLE "Suite From The Menagerie (Original TV Pilot)" PERFORMER "Erich Kunzel & Cincinnati Pops Orchestra" INDEX 00 02:57:13FILE "23-Suite From The Menagerie (Original TV Pilot).wav" WAVE INDEX 01 00:00:00 TRACK 24 AUDIO TITLE "Transporter" PERFORMER "Erich Kunzel & Cincinnati Pops Orchestra" INDEX 00 07:32:61FILE "24-Transporter.wav" WAVE INDEX 01 00:00:00 TRACK 25 AUDIO TITLE "Main Theme From Star Trek III: The Search For Spock" PERFORMER "Erich Kunzel & Cincinnati Pops Orchestra" INDEX 00 00:25:45FILE "25-Main Theme From Star Trek III- The Search For Spock.wav" WAVE INDEX 01 00:00:00 TRACK 26 AUDIO TITLE "Nexus Energy Ribbon" PERFORMER "Erich Kunzel & Cincinnati Pops Orchestra" INDEX 00 06:07:30FILE "26-Nexus Energy Ribbon.wav" WAVE INDEX 01 00:00:00FILE "27-End Title From Star Trek- Generations.wav" WAVE TRACK 27 AUDIO TITLE "End Title From Star Trek: Generations" PERFORMER "Erich Kunzel & Cincinnati Pops Orchestra" INDEX 01 00:00:00 TRACK 28 AUDIO TITLE "The Borg (Bonustrack)" PERFORMER "Erich Kunzel & Cincinnati Pops Orchestra" INDEX 00 04:07:40FILE "28-The Borg (Bonustrack).wav" WAVE INDEX 01 00:00:00


Трекер:  [ 26-Дек-2010 13:40 ]

  

Скачать .torrent

Размер .torrent файла 30 KB


Размер: 354 MB
Хэш (hash) релиза: 866eed18afc280aa68cb4dbf09c149e69d0dac93

Еще никто не оставлял запись к записи скачать торрент Erich Kunzel and the Cincinnati Pops Orchestra - Symphonic Star Trek - 1996, FLAC . Будь первым!

!Обратная связь