Скачать через торрент музыку Eric Serra - The Fifth Element бесплатно без регистрации torrent

Если у вас наблюдаются проблемы со скриншотами, переходом по ссылками, скачиванием торрентов - проблемы в блокировщике рекламы AdBlock. #хорошегоДня!


Статистика раздачи
Размер:  643 MB   |    Зарегистрирован:  6 лет 8 месяцев   |    .torrent скачан:  61 раз   |   
Раздают:  1  
   
Загрузка...
 
Автор Сообщение

Mos

avatar Mos


Eric Serra - The Fifth Element (2CD Complete Score Promo)

Жанр: Score
Год выпуска диска: 1997
Аудио кодек: APE
Тип рипа: image+.cue
Битрейт аудио: lossless
Трэклист:
01. Opening Titles-Egypt 1914
02. Toast to Fame
03. The Mondoshawan Arrive
04. Time not Important
05. 300 Years Later
06. Father Vito Cornelius
07. Absolute Evil-General Staedert's Death
08. Korben Dallas Awakes
09. Dangerous Gun, Nice Hat-Have a Nice Day
10. The Mondoshawan Return & The Mangalores Attack
11. Mr Zorg
12. Only One Survivor
13. Making the Perfect Specimen-General Alert-Police Pursuit
14. Big Badaboom
15. Please Help-Fleeing from the Cops
16. Police Chase
17. The Tattoo
18. She is Perfect
19. Leeloo
20. Fire One Million
21. An Ugly Face
22. An Empty Case
23. The Little Red Button
24. Jean-Baptiste Emmanuel Zorg
25. Choking on a Cherry
26. Bring me those Stones
27. Korben Wins a Trip
28. Leeloo Visits Korben
29. The Police Visit
30. Mangalore Ambush-Autowash
31. Korben Takes the Mission-The Airport
32. Ruby Rhod's Rap
33. Unbelievable
34. Ruby's Rap Continues
35. Sweet Dreams-A Dissappointed Zorg
36. A Ligh Speed Flight
37. Mr Shadow on the Line
38. The Fhloston
39. The Diva Arrives-Ruby Rhod Live
40. The Diva Plavalugana
41. The Diva Dance-Leeloo Fighting Mangalores
42. Zorg & the Mangalores Attack
43. The Dying Diva's Instructions-Korben Under Fire
44. I'm on Vacation
45. Zorg's Return-Negotiations
46. Korben Finds Leeloo
Exact Audio Copy V0.99 prebeta 4 from 23. January 2008

EAC extraction logfile from 12. April 2008, 14:40

Eric Serra / The Fifth Element Complete Score CD1

Used drive : PHILIPS DVD+-RW DVD8801 Adapter: 0 ID: 0

Read mode : Secure
Utilize accurate stream : Yes
Defeat audio cache : Yes
Make use of C2 pointers : No

Read offset correction : 618
Overread into Lead-In and Lead-Out : No
Fill up missing offset samples with silence : Yes
Delete leading and trailing silent blocks : No
Null samples used in CRC calculations : Yes
Used interface : Installed external ASPI interface

Used output format : Internal WAV Routines
Sample format : 44.100 Hz; 16 Bit; Stereo

TOC of the extracted CD

Track | Start | Length | Start sector | End sector
---------------------------------------------------------
1 | 0:00.00 | 4:30.18 | 0 | 20267
2 | 4:30.18 | 0:42.43 | 20268 | 23460
3 | 5:12.61 | 4:23.22 | 23461 | 43207
4 | 9:36.08 | 1:51.59 | 43208 | 51591
5 | 11:27.67 | 0:46.73 | 51592 | 55114
6 | 12:14.65 | 0:21.38 | 55115 | 56727
7 | 12:36.28 | 2:57.31 | 56728 | 70033
8 | 15:33.59 | 1:45.02 | 70034 | 77910
9 | 17:18.61 | 1:13.65 | 77911 | 83450
10 | 18:32.51 | 1:57.45 | 83451 | 92270
11 | 20:30.21 | 0:25.71 | 92271 | 94216
12 | 20:56.17 | 1:36.42 | 94217 | 101458
13 | 22:32.59 | 6:49.24 | 101459 | 132157
14 | 29:22.08 | 1:17.11 | 132158 | 137943
15 | 30:39.19 | 1:54.65 | 137944 | 146558
16 | 32:34.09 | 2:28.57 | 146559 | 157715
17 | 35:02.66 | 0:25.69 | 157716 | 159659
18 | 35:28.60 | 0:39.26 | 159660 | 162610
19 | 36:08.11 | 0:56.71 | 162611 | 166881
20 | 37:05.07 | 0:53.18 | 166882 | 170874
21 | 37:58.25 | 0:19.07 | 170875 | 172306
22 | 38:17.32 | 0:17.31 | 172307 | 173612
23 | 38:34.63 | 0:17.21 | 173613 | 174908
24 | 38:52.09 | 0:15.40 | 174909 | 176073
25 | 39:07.49 | 0:20.32 | 176074 | 177605
26 | 39:28.06 | 0:38.63 | 177606 | 180518
27 | 40:06.69 | 0:30.49 | 180519 | 182817
28 | 40:37.43 | 1:06.40 | 182818 | 187807
29 | 41:44.08 | 1:28.38 | 187808 | 194445
30 | 43:12.46 | 1:28.26 | 194446 | 201071
31 | 44:40.72 | 1:09.04 | 201072 | 206250
32 | 45:50.01 | 0:36.06 | 206251 | 208956
33 | 46:26.07 | 0:23.09 | 208957 | 210690
34 | 46:49.16 | 0:58.66 | 210691 | 215106
35 | 47:48.07 | 2:59.07 | 215107 | 228538
36 | 50:47.14 | 0:42.29 | 228539 | 231717
37 | 51:29.43 | 1:57.27 | 231718 | 240519
38 | 53:26.70 | 0:47.33 | 240520 | 244077
39 | 54:14.28 | 3:38.30 | 244078 | 260457
40 | 57:52.58 | 3:12.20 | 260458 | 274877
41 | 61:05.03 | 1:35.03 | 274878 | 282005
42 | 62:40.06 | 2:24.55 | 282006 | 292860
43 | 65:04.61 | 4:47.32 | 292861 | 314417
44 | 69:52.18 | 1:58.50 | 314418 | 323317
45 | 71:50.68 | 1:17.44 | 323318 | 329136
46 | 73:08.37 | 0:35.34 | 329137 | 331795

Range status and errors

Selected range

Filename C:\Documents and Settings\Allan Ackers\Desktop\Eric Serra - The Fifth Element Complete Score CD1.wav

Peak level 100.0 %
Range quality 100.0 %
Copy CRC FF1676FA
Copy OK

No errors occurred

AccurateRip summary

Track 1 not present in database
Track 2 not present in database
Track 3 not present in database
Track 4 not present in database
Track 5 not present in database
Track 6 not present in database
Track 7 not present in database
Track 8 not present in database
Track 9 not present in database
Track 10 not present in database
Track 11 not present in database
Track 12 not present in database
Track 13 not present in database
Track 14 not present in database
Track 15 not present in database
Track 16 not present in database
Track 17 not present in database
Track 18 not present in database
Track 19 not present in database
Track 20 not present in database
Track 21 not present in database
Track 22 not present in database
Track 23 not present in database
Track 24 not present in database
Track 25 not present in database
Track 26 not present in database
Track 27 not present in database
Track 28 not present in database
Track 29 not present in database
Track 30 not present in database
Track 31 not present in database
Track 32 not present in database
Track 33 not present in database
Track 34 not present in database
Track 35 not present in database
Track 36 not present in database
Track 37 not present in database
Track 38 not present in database
Track 39 not present in database
Track 40 not present in database
Track 41 not present in database
Track 42 not present in database
Track 43 not present in database
Track 44 not present in database
Track 45 not present in database
Track 46 not present in database

None of the tracks are present in the AccurateRip database

End of status report
01. A Bomb-Evacuation
02. Human Nature-War-The Five Elements
03. Love is Worth Saving
04. Little Light of Love
05. Absolute Evil (unused)
06. South Brooklyn, New York (unused)
07. Egypt (unused)
08. Mondoshawan Arrive ('Mondoshawan')
09. 'Akta'
10. Time Crash
11. Korben Dallas Awakes
12. The Mangalore Attack ('Mangalores')
13. Making the Perfect Specimen ('Leeloo')
14. General Alert-Police Pursuit ('Five Millenia Later')
15. 'Ruby Rap'
16. 'Leeloominai'
17. 'No Cash No Trash'
18. Autowash ('Mina Hinoo')
19. Evacuation ('A Bomb in the Hotel')
20. 'Human Nature'
21. 'Lakta Ligunai'
22. War ('Pictures of War')
23. Love is Worth Saving ('Protect Life')
24. Little Light of Love
25. 'Aknot! Wot '
Exact Audio Copy V0.99 prebeta 4 from 23. January 2008

EAC extraction logfile from 12. April 2008, 14:49

Eric Serra / The Fifth Element Complete Score CD2

Used drive : PHILIPS DVD+-RW DVD8801 Adapter: 0 ID: 0

Read mode : Secure
Utilize accurate stream : Yes
Defeat audio cache : Yes
Make use of C2 pointers : No

Read offset correction : 618
Overread into Lead-In and Lead-Out : No
Fill up missing offset samples with silence : Yes
Delete leading and trailing silent blocks : No
Null samples used in CRC calculations : Yes
Used interface : Installed external ASPI interface

Used output format : Internal WAV Routines
Sample format : 44.100 Hz; 16 Bit; Stereo

TOC of the extracted CD

Track | Start | Length | Start sector | End sector
---------------------------------------------------------
1 | 0:00.00 | 2:37.11 | 0 | 11785
2 | 2:37.11 | 8:00.48 | 11786 | 47833
3 | 10:37.59 | 2:43.30 | 47834 | 60088
4 | 13:21.14 | 3:34.69 | 60089 | 76207
5 | 16:56.08 | 1:14.72 | 76208 | 81829
6 | 18:11.05 | 1:34.64 | 81830 | 88943
7 | 19:45.69 | 0:53.36 | 88944 | 92954
8 | 20:39.30 | 4:03.25 | 92955 | 111204
9 | 24:42.55 | 1:53.14 | 111205 | 119693
10 | 26:35.69 | 1:52.32 | 119694 | 128125
11 | 28:28.26 | 1:45.02 | 128126 | 136002
12 | 30:13.28 | 1:10.08 | 136003 | 141260
13 | 31:23.36 | 4:57.53 | 141261 | 163588
14 | 36:21.14 | 3:15.37 | 163589 | 178250
15 | 39:36.51 | 1:58.02 | 178251 | 187102
16 | 41:34.53 | 1:44.05 | 187103 | 194907
17 | 43:18.58 | 1:06.52 | 194908 | 199909
18 | 44:25.35 | 0:56.42 | 199910 | 204151
19 | 45:22.02 | 2:17.28 | 204152 | 214454
20 | 47:39.30 | 2:04.37 | 214455 | 223791
21 | 49:43.67 | 4:15.66 | 223792 | 242982
22 | 53:59.58 | 1:22.31 | 242983 | 249163
23 | 55:22.14 | 2:34.58 | 249164 | 260771
24 | 57:56.72 | 4:52.24 | 260772 | 282695
25 | 62:49.21 | 3:34.49 | 282696 | 298794

Range status and errors

Selected range

Filename C:\Documents and Settings\Allan Ackers\Desktop\Eric Serra - The Fifth Element Complete Score CD2.wav

Peak level 100.0 %
Range quality 100.0 %
Copy CRC 88A87D59
Copy OK

No errors occurred

AccurateRip summary

Track 1 not present in database
Track 2 not present in database
Track 3 not present in database
Track 4 not present in database
Track 5 not present in database
Track 6 not present in database
Track 7 not present in database
Track 8 not present in database
Track 9 not present in database
Track 10 not present in database
Track 11 not present in database
Track 12 not present in database
Track 13 not present in database
Track 14 not present in database
Track 15 not present in database
Track 16 not present in database
Track 17 not present in database
Track 18 not present in database
Track 19 not present in database
Track 20 not present in database
Track 21 not present in database
Track 22 not present in database
Track 23 not present in database
Track 24 not present in database
Track 25 not present in database

None of the tracks are present in the AccurateRip database

End of status report
Доп. информация:
Music / Conductor / Arranger / Musician: Eric Serra
Additional Music: Gaetano Donizetti (from Lucia di Lammermoor)
Incidental Music: Cliff Martinez, Mark Mangini
Music Supervisor: Anita Camarata
Songs: Khaled (Alech Taadi); Gaetano Donizetti (Il Dolce Suono From opera Lucia di Lammermoor Act 2: Mad scene Il dolce suono mi colpм...); Eric Serra (The Little Light Of Love); Luc Besson (The Diva Dance); Lionel Richie (All Night Long)
Songs Performed By: Khaled (Alech Taadi); Inva Mulla Tchako, London Symphony Orchestra (conducted by Frйdйric Chaslin, produced by Michel Glotz) (Il Dolce Suono From opera Lucia di Lammermoor Act 2: Mad scene Il dolce suono mi colpм...); R.X.R.A. (The Little Light Of Love); Inva Mulla Tchako (The Diva Dance)
Opera Singer: Inva Mulla Tchako
Symphonic Parts Performed By: The London Session Orchestra
Songs Produced By: Rupert Hine, Eric Serra (The Little Light Of Love); Eric Serra (The Diva Dance)
Music Recording: Isabelle Martin
Music Recording (Symphonic Parts): Mike Ross-Trevor
Soundtrack Mixer: Didier Lozahic
Soundtrack Musical Assistant: Sйbastien Cortella
Music Mixdown: Pacific Ocean Post
Источник - HQShare.net
Один из моих любимых саундтреков, выделяющийся несколькими замечательными мелодиями - отличная музыка, рекомендую!

Трекер:  [ 26-Дек-2010 13:39 ]

  

Скачать .torrent

Размер .torrent файла 14 KB


Размер: 643 MB
Хэш (hash) релиза: 17c78f503c7647d15db54a6fa435e3c04b68f969

Торренты, похожие на Eric Serra - The Fifth Element скачать торрент

Форум Название Автор Размер S L Добавлен
Саундтреки к фильмам и мультфильмам (lossless) ·· (Score) The Fifth Element / Пятый Элемент (Eric Serra) - 1997, WAVPack (image+.cue), lossless Galfimbul 368306922351 MB 0 0 1292268508

22:28

13-Дек-10

Саундтреки к фильмам и мультфильмам (mp3) ·· (Score) The Fifth Element / Пятый элемент [Complete Score, 2 CD] (Eric Serra) - 1997, MP3 (tracks), 320 kbps Galfimbul 336396389321 MB 0 0 1292265074

21:31

13-Дек-10

Еще никто не оставлял запись к записи скачать торрент Eric Serra - The Fifth Element . Будь первым!

!Обратная связь