Скачать через торрент музыку Ennio Morricone - Two Mules For Sister Sara Days Of Heaven - 1969, FLAC бесплатно без регистрации torrent

Если у вас наблюдаются проблемы со скриншотами, переходом по ссылками, скачиванием торрентов - проблемы в блокировщике рекламы AdBlock. #хорошегоДня!


Статистика раздачи
Размер:  257 MB   |    Зарегистрирован:  6 лет 11 месяцев   |    .torrent скачан:  50 раз   |   
Раздают:  1  
   
Загрузка...
 
Автор Сообщение

Mos

avatar Mos


Ennio Morricone - Two Mules For Sister Sara / Days Of Heaven

Жанр: Score
Год выпуска диска: 1969
Аудио кодек: FLAC
Тип рипа: tracks+.cue
Битрейт аудио: lossless
Продолжительность: 1:00:27
Трэклист:
Track 1-11 from "Two Mules For Sister Sara"
1. Main Title (04:10)
2. A Time For Miracles (01:54)
3. Night On The Desert (03:13)
4. Sister Sara's Theme (05:18)
5. The Swinging Rope (03:40)
6. The Braying Mule (02:30)
7. La Cueva (02:13)
8. La Cantina (01:32)
9. The Cool Mule (02:16)
10. The Battle (03:30)
11. Main Title (Reprise) (03:26)
Track 12-20 from "Days Of Heaven"
12. Harvest (02:57)
13. Threshing (02:05)
14. Happiness (02:12)
15. The Honeymoon (01:22)
16. The Return (02:28)
17. The Chase (01:57)
18. The Fire (07:46)
19. Ashes & Dust (02:15)
20. Days Of Heaven (03:43)
Доп. информация:
X Lossless Decoder version 20080926 (93.3)

XLD extraction logfile from 2008-11-27 19:00:42 +0100

Ennio Morricone / Two Mules For Sister Sara / Days Of Heaven

Used drive : MATSHITA DVD-R UJ-857 (revision HBEA)

Use cdparanoia mode : YES (CDParanoia III 10.2 engine)
Disable audio cache : OK for the drive with cache less than 2750KB
Make use of C2 pointers : NO
Read offset correction : 102
Max retry count : 100

TOC of the extracted CD
Track | Start | Length | Start sector | End sector
---------------------------------------------------------
1 | 00:00:00 | 04:13:30 | 0 | 19004
2 | 04:13:30 | 01:54:20 | 19005 | 27574
3 | 06:07:50 | 03:13:35 | 27575 | 42084
4 | 09:21:10 | 05:19:17 | 42085 | 66026
5 | 14:40:27 | 03:41:50 | 66027 | 82651
6 | 18:22:02 | 02:30:33 | 82652 | 93934
7 | 20:52:35 | 02:14:72 | 93935 | 104056
8 | 23:07:32 | 01:32:45 | 104057 | 111001
9 | 24:40:02 | 02:19:15 | 111002 | 121441
10 | 26:59:17 | 03:30:00 | 121442 | 137191
11 | 30:29:17 | 03:26:13 | 137192 | 152654
12 | 33:55:30 | 02:57:50 | 152655 | 165979
13 | 36:53:05 | 02:03:25 | 165980 | 175229
14 | 38:56:30 | 02:11:05 | 175230 | 185059
15 | 41:07:35 | 01:18:45 | 185060 | 190954
16 | 42:26:05 | 02:28:42 | 190955 | 202096
17 | 44:54:47 | 01:58:43 | 202097 | 210989
18 | 46:53:15 | 07:48:32 | 210990 | 246121
19 | 54:41:47 | 02:15:25 | 246122 | 256271
20 | 56:56:72 | 03:15:35 | 256272 | 270931

Track 01
Filename : /Users/kjetil/Music/LZTR/UPLOAD/zTEMP/01 Ennio Morricone - Main Title.flac
/Users/kjetil/Music/LZTR/UPLOAD/zTEMP/01 Ennio Morricone - Main Title.mp3
CRC32 hash (test run) : 2FF35C07
CRC32 hash : 2FF35C07
CRC32 hash (skip zero) : 7DDAD06F
AccurateRip signature : 6AA60CF1
->Track not present in AccurateRip database.
Statistics
Read error : 0
Skipped (treated as error) : 0
Edge jitter error (maybe fixed) : 0
Atom jitter error (maybe fixed) : 0
Drift error (maybe fixed) : 0
Dropped bytes error (maybe fixed) : 0
Duplicated bytes error (maybe fixed) : 0
Inconsistency in error sectors : 0

Track 02
Filename : /Users/kjetil/Music/LZTR/UPLOAD/zTEMP/02 Ennio Morricone - A Time For Miracles.flac
/Users/kjetil/Music/LZTR/UPLOAD/zTEMP/02 Ennio Morricone - A Time For Miracles.mp3
CRC32 hash (test run) : 40AA735D
CRC32 hash : 40AA735D
CRC32 hash (skip zero) : 568A09E2
AccurateRip signature : 4D4531E8
->Track not present in AccurateRip database.
Statistics
Read error : 0
Skipped (treated as error) : 0
Edge jitter error (maybe fixed) : 0
Atom jitter error (maybe fixed) : 0
Drift error (maybe fixed) : 0
Dropped bytes error (maybe fixed) : 0
Duplicated bytes error (maybe fixed) : 0
Inconsistency in error sectors : 0

Track 03
Filename : /Users/kjetil/Music/LZTR/UPLOAD/zTEMP/03 Ennio Morricone - Night On The Desert.flac
/Users/kjetil/Music/LZTR/UPLOAD/zTEMP/03 Ennio Morricone - Night On The Desert.mp3
CRC32 hash (test run) : 6C649664
CRC32 hash : 6C649664
CRC32 hash (skip zero) : E4F814B3
AccurateRip signature : 98134E88
->Track not present in AccurateRip database.
Statistics
Read error : 0
Skipped (treated as error) : 0
Edge jitter error (maybe fixed) : 0
Atom jitter error (maybe fixed) : 0
Drift error (maybe fixed) : 0
Dropped bytes error (maybe fixed) : 0
Duplicated bytes error (maybe fixed) : 0
Inconsistency in error sectors : 0

Track 04
Filename : /Users/kjetil/Music/LZTR/UPLOAD/zTEMP/04 Ennio Morricone - Sister Sara's Theme.flac
/Users/kjetil/Music/LZTR/UPLOAD/zTEMP/04 Ennio Morricone - Sister Sara's Theme.mp3
CRC32 hash (test run) : 2173CD9F
CRC32 hash : 2173CD9F
CRC32 hash (skip zero) : 12140D03
AccurateRip signature : 2894A36D
->Track not present in AccurateRip database.
Statistics
Read error : 0
Skipped (treated as error) : 0
Edge jitter error (maybe fixed) : 0
Atom jitter error (maybe fixed) : 0
Drift error (maybe fixed) : 0
Dropped bytes error (maybe fixed) : 0
Duplicated bytes error (maybe fixed) : 0
Inconsistency in error sectors : 0

Track 05
Filename : /Users/kjetil/Music/LZTR/UPLOAD/zTEMP/05 Ennio Morricone - The Swinging Rope.flac
/Users/kjetil/Music/LZTR/UPLOAD/zTEMP/05 Ennio Morricone - The Swinging Rope.mp3
CRC32 hash (test run) : 7B77B684
CRC32 hash : 7B77B684
CRC32 hash (skip zero) : 786CAF5E
AccurateRip signature : 4B84D8CC
->Track not present in AccurateRip database.
Statistics
Read error : 0
Skipped (treated as error) : 0
Edge jitter error (maybe fixed) : 0
Atom jitter error (maybe fixed) : 0
Drift error (maybe fixed) : 0
Dropped bytes error (maybe fixed) : 0
Duplicated bytes error (maybe fixed) : 0
Inconsistency in error sectors : 0

Track 06
Filename : /Users/kjetil/Music/LZTR/UPLOAD/zTEMP/06 Ennio Morricone - The Braying Mule.flac
/Users/kjetil/Music/LZTR/UPLOAD/zTEMP/06 Ennio Morricone - The Braying Mule.mp3
CRC32 hash (test run) : D1A03DF9
CRC32 hash : D1A03DF9
CRC32 hash (skip zero) : 7B017B4D
AccurateRip signature : 8C65D0DC
->Track not present in AccurateRip database.
Statistics
Read error : 0
Skipped (treated as error) : 0
Edge jitter error (maybe fixed) : 0
Atom jitter error (maybe fixed) : 0
Drift error (maybe fixed) : 0
Dropped bytes error (maybe fixed) : 0
Duplicated bytes error (maybe fixed) : 0
Inconsistency in error sectors : 0

Track 07
Filename : /Users/kjetil/Music/LZTR/UPLOAD/zTEMP/07 Ennio Morricone - La Cueva.flac
/Users/kjetil/Music/LZTR/UPLOAD/zTEMP/07 Ennio Morricone - La Cueva.mp3
CRC32 hash (test run) : 1308BE43
CRC32 hash : 1308BE43
CRC32 hash (skip zero) : 9AEE51DA
AccurateRip signature : 3978D7FE
->Track not present in AccurateRip database.
Statistics
Read error : 0
Skipped (treated as error) : 0
Edge jitter error (maybe fixed) : 0
Atom jitter error (maybe fixed) : 0
Drift error (maybe fixed) : 0
Dropped bytes error (maybe fixed) : 0
Duplicated bytes error (maybe fixed) : 0
Inconsistency in error sectors : 0

Track 08
Filename : /Users/kjetil/Music/LZTR/UPLOAD/zTEMP/08 Ennio Morricone - La Cantina.flac
/Users/kjetil/Music/LZTR/UPLOAD/zTEMP/08 Ennio Morricone - La Cantina.mp3
CRC32 hash (test run) : 29FF2994
CRC32 hash : 29FF2994
CRC32 hash (skip zero) : 23569E84
AccurateRip signature : 54E1791B
->Track not present in AccurateRip database.
Statistics
Read error : 0
Skipped (treated as error) : 0
Edge jitter error (maybe fixed) : 0
Atom jitter error (maybe fixed) : 0
Drift error (maybe fixed) : 0
Dropped bytes error (maybe fixed) : 0
Duplicated bytes error (maybe fixed) : 0
Inconsistency in error sectors : 0

Track 09
Filename : /Users/kjetil/Music/LZTR/UPLOAD/zTEMP/09 Ennio Morricone - The Cool Mule.flac
/Users/kjetil/Music/LZTR/UPLOAD/zTEMP/09 Ennio Morricone - The Cool Mule.mp3
CRC32 hash (test run) : DAD605DA
CRC32 hash : DAD605DA
CRC32 hash (skip zero) : 9361ED21
AccurateRip signature : 5FCA231C
->Track not present in AccurateRip database.
Statistics
Read error : 0
Skipped (treated as error) : 0
Edge jitter error (maybe fixed) : 0
Atom jitter error (maybe fixed) : 0
Drift error (maybe fixed) : 0
Dropped bytes error (maybe fixed) : 0
Duplicated bytes error (maybe fixed) : 0
Inconsistency in error sectors : 0

Track 10
Filename : /Users/kjetil/Music/LZTR/UPLOAD/zTEMP/10 Ennio Morricone - The Battle.flac
/Users/kjetil/Music/LZTR/UPLOAD/zTEMP/10 Ennio Morricone - The Battle.mp3
CRC32 hash (test run) : 5BADD8E3
CRC32 hash : 5BADD8E3
CRC32 hash (skip zero) : 89DF08A1
AccurateRip signature : C7C1E9EC
->Track not present in AccurateRip database.
Statistics
Read error : 0
Skipped (treated as error) : 0
Edge jitter error (maybe fixed) : 0
Atom jitter error (maybe fixed) : 0
Drift error (maybe fixed) : 0
Dropped bytes error (maybe fixed) : 0
Duplicated bytes error (maybe fixed) : 0
Inconsistency in error sectors : 0

Track 11
Filename : /Users/kjetil/Music/LZTR/UPLOAD/zTEMP/11 Ennio Morricone - Main Title (Reprise).flac
/Users/kjetil/Music/LZTR/UPLOAD/zTEMP/11 Ennio Morricone - Main Title (Reprise).mp3
CRC32 hash (test run) : B6664718
CRC32 hash : B6664718
CRC32 hash (skip zero) : 9BA14E44
AccurateRip signature : 238740C3
->Track not present in AccurateRip database.
Statistics
Read error : 0
Skipped (treated as error) : 0
Edge jitter error (maybe fixed) : 0
Atom jitter error (maybe fixed) : 0
Drift error (maybe fixed) : 0
Dropped bytes error (maybe fixed) : 0
Duplicated bytes error (maybe fixed) : 0
Inconsistency in error sectors : 0

Track 12
Filename : /Users/kjetil/Music/LZTR/UPLOAD/zTEMP/12 Ennio Morricone - Harvest.flac
/Users/kjetil/Music/LZTR/UPLOAD/zTEMP/12 Ennio Morricone - Harvest.mp3
CRC32 hash (test run) : 8E8CD999
CRC32 hash : 8E8CD999
CRC32 hash (skip zero) : FB3B2105
AccurateRip signature : AA79CD2F
->Track not present in AccurateRip database.
Statistics
Read error : 0
Skipped (treated as error) : 0
Edge jitter error (maybe fixed) : 0
Atom jitter error (maybe fixed) : 0
Drift error (maybe fixed) : 0
Dropped bytes error (maybe fixed) : 0
Duplicated bytes error (maybe fixed) : 0
Inconsistency in error sectors : 0

Track 13
Filename : /Users/kjetil/Music/LZTR/UPLOAD/zTEMP/13 Ennio Morricone - Threshing.flac
/Users/kjetil/Music/LZTR/UPLOAD/zTEMP/13 Ennio Morricone - Threshing.mp3
CRC32 hash (test run) : FBE8F2A0
CRC32 hash : FBE8F2A0
CRC32 hash (skip zero) : 055C1E25
AccurateRip signature : 1890F922
->Track not present in AccurateRip database.
Statistics
Read error : 0
Skipped (treated as error) : 0
Edge jitter error (maybe fixed) : 0
Atom jitter error (maybe fixed) : 0
Drift error (maybe fixed) : 0
Dropped bytes error (maybe fixed) : 0
Duplicated bytes error (maybe fixed) : 0
Inconsistency in error sectors : 0

Track 14
Filename : /Users/kjetil/Music/LZTR/UPLOAD/zTEMP/14 Ennio Morricone - Happiness.flac
/Users/kjetil/Music/LZTR/UPLOAD/zTEMP/14 Ennio Morricone - Happiness.mp3
CRC32 hash (test run) : 3B7C49F6
CRC32 hash : 3B7C49F6
CRC32 hash (skip zero) : 4921794A
AccurateRip signature : 4FFD156E
->Track not present in AccurateRip database.
Statistics
Read error : 0
Skipped (treated as error) : 0
Edge jitter error (maybe fixed) : 0
Atom jitter error (maybe fixed) : 0
Drift error (maybe fixed) : 0
Dropped bytes error (maybe fixed) : 0
Duplicated bytes error (maybe fixed) : 0
Inconsistency in error sectors : 0

Track 15
Filename : /Users/kjetil/Music/LZTR/UPLOAD/zTEMP/15 Ennio Morricone - The Honeymoon.flac
/Users/kjetil/Music/LZTR/UPLOAD/zTEMP/15 Ennio Morricone - The Honeymoon.mp3
CRC32 hash (test run) : A0549B45
CRC32 hash : A0549B45
CRC32 hash (skip zero) : 0007FCF4
AccurateRip signature : 5D159462
->Track not present in AccurateRip database.
Statistics
Read error : 0
Skipped (treated as error) : 0
Edge jitter error (maybe fixed) : 0
Atom jitter error (maybe fixed) : 0
Drift error (maybe fixed) : 0
Dropped bytes error (maybe fixed) : 0
Duplicated bytes error (maybe fixed) : 0
Inconsistency in error sectors : 0

Track 16
Filename : /Users/kjetil/Music/LZTR/UPLOAD/zTEMP/16 Ennio Morricone - The Return.flac
/Users/kjetil/Music/LZTR/UPLOAD/zTEMP/16 Ennio Morricone - The Return.mp3
CRC32 hash (test run) : 7CAED93A
CRC32 hash : 7CAED93A
CRC32 hash (skip zero) : B4FA3B0C
AccurateRip signature : CA709466
->Track not present in AccurateRip database.
Statistics
Read error : 0
Skipped (treated as error) : 0
Edge jitter error (maybe fixed) : 0
Atom jitter error (maybe fixed) : 0
Drift error (maybe fixed) : 0
Dropped bytes error (maybe fixed) : 0
Duplicated bytes error (maybe fixed) : 0
Inconsistency in error sectors : 0

Track 17
Filename : /Users/kjetil/Music/LZTR/UPLOAD/zTEMP/17 Ennio Morricone - The Chase.flac
/Users/kjetil/Music/LZTR/UPLOAD/zTEMP/17 Ennio Morricone - The Chase.mp3
CRC32 hash (test run) : 090A515F
CRC32 hash : 090A515F
CRC32 hash (skip zero) : D9509131
AccurateRip signature : 6EABC98E
->Track not present in AccurateRip database.
Statistics
Read error : 0
Skipped (treated as error) : 0
Edge jitter error (maybe fixed) : 0
Atom jitter error (maybe fixed) : 0
Drift error (maybe fixed) : 0
Dropped bytes error (maybe fixed) : 0
Duplicated bytes error (maybe fixed) : 0
Inconsistency in error sectors : 0

Track 18
Filename : /Users/kjetil/Music/LZTR/UPLOAD/zTEMP/18 Ennio Morricone - The Fire.flac
/Users/kjetil/Music/LZTR/UPLOAD/zTEMP/18 Ennio Morricone - The Fire.mp3
CRC32 hash (test run) : 10D1A32F
CRC32 hash : 10D1A32F
CRC32 hash (skip zero) : 8887B921
AccurateRip signature : F5966567
->Track not present in AccurateRip database.
Statistics
Read error : 0
Skipped (treated as error) : 0
Edge jitter error (maybe fixed) : 0
Atom jitter error (maybe fixed) : 0
Drift error (maybe fixed) : 0
Dropped bytes error (maybe fixed) : 0
Duplicated bytes error (maybe fixed) : 0
Inconsistency in error sectors : 0

Track 19
Filename : /Users/kjetil/Music/LZTR/UPLOAD/zTEMP/19 Ennio Morricone - Ashes & Dust.flac
/Users/kjetil/Music/LZTR/UPLOAD/zTEMP/19 Ennio Morricone - Ashes & Dust.mp3
CRC32 hash (test run) : 6470CEEE
CRC32 hash : 6470CEEE
CRC32 hash (skip zero) : F7898E7E
AccurateRip signature : 73C37F10
->Track not present in AccurateRip database.
Statistics
Read error : 0
Skipped (treated as error) : 0
Edge jitter error (maybe fixed) : 0
Atom jitter error (maybe fixed) : 0
Drift error (maybe fixed) : 0
Dropped bytes error (maybe fixed) : 0
Duplicated bytes error (maybe fixed) : 0
Inconsistency in error sectors : 0

Track 20
Filename : /Users/kjetil/Music/LZTR/UPLOAD/zTEMP/20 Ennio Morricone - Days Of Heaven.flac
/Users/kjetil/Music/LZTR/UPLOAD/zTEMP/20 Ennio Morricone - Days Of Heaven.mp3
CRC32 hash (test run) : E85E224B
CRC32 hash : E85E224B
CRC32 hash (skip zero) : 667C3B5F
AccurateRip signature : 15A8098E
->Track not present in AccurateRip database.
Statistics
Read error : 0
Skipped (treated as error) : 0
Edge jitter error (maybe fixed) : 0
Atom jitter error (maybe fixed) : 0
Drift error (maybe fixed) : 0
Dropped bytes error (maybe fixed) : 0
Duplicated bytes error (maybe fixed) : 0
Inconsistency in error sectors : 0

No errors occurred

End of status report


Трекер:  [ 26-Дек-2010 13:35 ]

  

Скачать .torrent

Размер .torrent файла 12 KB


Размер: 257 MB
Хэш (hash) релиза: 4d6eb41aa382b1363437aa2c604874031a8148d5

Еще никто не оставлял запись к записи скачать торрент Ennio Morricone - Two Mules For Sister Sara Days Of Heaven - 1969, FLAC . Будь первым!

!Обратная связь