Скачать через торрент музыку The Story Of Us бесплатно без регистрации torrent

Если у вас наблюдаются проблемы со скриншотами, переходом по ссылками, скачиванием торрентов - проблемы в блокировщике рекламы AdBlock. #хорошегоДня!


Статистика раздачи
Размер:  182 MB   |    Зарегистрирован:  6 лет 8 месяцев   |    .torrent скачан:  62 раза   |   
Раздают:  1  
   
Загрузка...
 
Автор Сообщение

Колян

avatar Колян


The Story Of Us (Music By Eric Clapton with Marc Shaiman)

Жанр: Score
Год выпуска диска: 1999
Производитель диска: Germany, Reprise Records, 9362-47608-2
Аудио кодек: APE
Тип рипа: image+.cue
Битрейт аудио: lossless
Продолжительность: 40:37

Трэклист:
1. Main Title/(I) Get Lost (3:57)
2. A Spoon Is Just A Spoon (0:43)
3. The Girl In The Pith Helmet (1:16)
4. Fighting (0:33)
5. Empty Nest (0:52)
6. Keepin' Out Of Mischief Now (4:34)
7. Touching Feet Under The Covers (0:51)
8. Everything I Love Is In This Bed (1:09)
9. Dry Cleaning/(I) Get Lost (1:23)
10. The Sheik Of Araby (2:36)
11. Family Bed (0:42)
12. Busy Baby Montage (0:51)
13. Wonderful Tonight (Live Edit) (5:24)
14. Silent Drive To Camp (0:39)
15. Camp Montage (0:49)
16. Don't Sit Under The Apple Tree (2:58)
17. Epiphany At The Bistro (0:51)
18. I Hate The Kirbys (0:48)
19. Love In Venice (0:50)
20. Ben Takes The Apartment (1:02)
21. Writing Montage (0:52)
22. Pictures On A Wall (0:50)
23. Classical Gas (2:37)
24. Let's Go To Chow Fun (3:21)
Exact Audio Copy V0.99 prebeta 4 from 23. January 2008

Отчёт EAC об извлечении, выполненном 25. ноября 2008, 22:32

Eric Clapton & Marc Shaiman / The Story Of Us (OST)

Дисковод: HL-DT-STDVDRAM GSA-T40N Adapter: 2 ID: 0

Режим чтения : Достоверность
Использование точного потока : Да
Отключение кэша аудио : Да
Использование указателей C2 : Нет

Коррекция смещения при чтении : 667
Способность читать области Lead-in и Lead-out : Нет
Заполнение пропущенных сэмплов тишиной : Да
Удаление блоков с тишиной в начале и конце : Нет
При вычислениях CRC использовались нулевые сэмплы : Да
Интерфейс : Установленный внешний ASPI-интерфейс

Выходной формат : Monkey's Audio Lossless Encoder v3.99 DLL
Формат сэмплов : Normal Lossless Compression

TOC извлечённого CD

Трек | Старт | Длительность | Начальный сектор | Конечный сектор
---------------------------------------------------------------------
1 | 0:00.00 | 3:57.10 | 0 | 17784
2 | 3:57.10 | 0:43.25 | 17785 | 21034
3 | 4:40.35 | 1:16.07 | 21035 | 26741
4 | 5:56.42 | 0:33.08 | 26742 | 29224
5 | 6:29.50 | 0:52.30 | 29225 | 33154
6 | 7:22.05 | 4:34.32 | 33155 | 53736
7 | 11:56.37 | 0:51.08 | 53737 | 57569
8 | 12:47.45 | 1:09.20 | 57570 | 62764
9 | 13:56.65 | 1:23.30 | 62765 | 69019
10 | 15:20.20 | 2:36.22 | 69020 | 80741
11 | 17:56.42 | 0:42.68 | 80742 | 83959
12 | 18:39.35 | 0:51.17 | 83960 | 87801
13 | 19:30.52 | 5:24.48 | 87802 | 112149
14 | 24:55.25 | 0:39.60 | 112150 | 115134
15 | 25:35.10 | 0:49.02 | 115135 | 118811
16 | 26:24.12 | 2:58.68 | 118812 | 132229
17 | 29:23.05 | 0:50.72 | 132230 | 136051
18 | 30:14.02 | 0:48.03 | 136052 | 139654
19 | 31:02.05 | 0:50.67 | 139655 | 143471
20 | 31:52.72 | 1:02.33 | 143472 | 148154
21 | 32:55.30 | 0:52.22 | 148155 | 152076
22 | 33:47.52 | 0:50.43 | 152077 | 155869
23 | 34:38.20 | 2:37.02 | 155870 | 167646
24 | 37:15.22 | 3:21.63 | 167647 | 182784

Характеристики диапазона извлечения и сообщения об ошибках

Выбранный диапазон

Имя файла C:\Audio Rips\Eric Clapton & Marc Shaiman - The Story Of Us (OST).ape

Пиковый уровень 98.8 %
Качество диапазона 100.0 %
CRC теста 95F29A97
CRC копии 95F29A97
Копирование... OK

Ошибок не произошло

AccurateRip: сводка

Трек 1 точное извлечение (доверие 4) [940206D2]
Трек 2 точное извлечение (доверие 4) [A17B3B21]
Трек 3 точное извлечение (доверие 4) [DCD2CE72]
Трек 4 точное извлечение (доверие 4) [FB8FF205]
Трек 5 точное извлечение (доверие 4) [0AA37308]
Трек 6 точное извлечение (доверие 4) [D25A2984]
Трек 7 точное извлечение (доверие 4) [41798FC4]
Трек 8 точное извлечение (доверие 4) [31242981]
Трек 9 точное извлечение (доверие 4) [950C99E7]
Трек 10 точное извлечение (доверие 4) [5DAE384A]
Трек 11 точное извлечение (доверие 4) [C353E400]
Трек 12 точное извлечение (доверие 4) [C58D225D]
Трек 13 точное извлечение (доверие 4) [341A89C0]
Трек 14 точное извлечение (доверие 4) [AF54B542]
Трек 15 точное извлечение (доверие 4) [D8F9FA09]
Трек 16 точное извлечение (доверие 3) [C5D7FFD8]
Трек 17 точное извлечение (доверие 2) [95AB6B00]
Трек 18 точное извлечение (доверие 4) [19DA558B]
Трек 19 точное извлечение (доверие 4) [C04B1245]
Трек 20 точное извлечение (доверие 4) [4CD27B2E]
Трек 21 точное извлечение (доверие 4) [00508D09]
Трек 22 точное извлечение (доверие 4) [4029B507]
Трек 23 точное извлечение (доверие 4) [EEE362A9]
Трек 24 точное извлечение (доверие 4) [F899CC99]

Все треки извлечены точно

Конец отчёта


Трекер:  [ 25-Дек-2010 20:30 ]

  

Скачать .torrent

Размер .torrent файла 15 KB


Размер: 182 MB
Хэш (hash) релиза: e87998c604a7b60093c4c53a3fd517a7dab3c6e3

Торренты, похожие на The Story Of Us скачать торрент

Форум Название Автор Размер S L Добавлен
Саундтреки к фильмам и мультфильмам (mp3) ·· (Score) История о нас / The Story Of Us (Music By Eric Clapton with Marc Shaiman) - 1999, MP3 (tracks), 320 kbps Galfimbul 9791110693 MB 0 0 1292265814

21:43

13-Дек-10

bot

Топик был перенесен в форум Саундтреки к фильмам и мультфильмам (lossless)

Перенес Колян

Хотите добавить комментарий к записи скачать торрент The Story Of Us

!Обратная связь