Скачать через торрент музыку Histoire DO & Histoire dO: Chapitre 2История «О» и История «О» 2: Возвращение в Руасс бесплатно без регистрации torrent

Если у вас наблюдаются проблемы со скриншотами, переходом по ссылками, скачиванием торрентов - проблемы в блокировщике рекламы AdBlock. #хорошегоДня!


Статистика раздачи
Размер:  366 MB   |    Зарегистрирован:  6 лет 2 месяца   |    .torrent скачан:  61 раз   |   
Раздают:  1  
   
Загрузка...
 
Автор Сообщение

Galfimbul

avatar Galfimbul


Histoire D'O & Histoire d'O: Chapitre 2/История «О» и История «О» 2: Возвращение в Руасси

Жанр: OST
Год выпуска диска: 1997
Производитель диска: Италия
Аудио кодек: FLAC
Тип рипа: tracks+.cue
Битрейт аудио: lossless
Продолжительность: 01:07:36
Трэклист:
Histoire d'O
01. Pierre Bachelet - Histoire D'o (3:05)
02. Pierre Bachelet - O' Et La Rencontre (2:28)
03. Pierre Bachelet - O' Et Le Chateau De Roissy (4:21)
04. Pierre Bachelet - O' Et L' Amour A Trois (1:58)
05. Pierre Bachelet - O' Apres (0:52)
06. Pierre Bachelet - O' She's A Lady (2:50)
07. Pierre Bachelet - Tout Cela Est Pour Toi (3:12)
08. Pierre Bachelet - O' Avec Pierre (1:38)
09. Pierre Bachelet - O' Et Sir Stephen (3:05)
10. Pierre Bachelet - O' Et La Photo De Jacqueline (1:00)
11. Pierre Bachelet - O' Comme Alice (1:55)
12. Pierre Bachelet - O' Et La Valse Du Gramophone (1:22)
13. Pierre Bachelet - O' Et L' Amour D' Yvan (1:56)
14. Pierre Bachelet - O' Comme Histoire D'o (2:39)

Histoire d'O no.2
15. Mort Shuman & Stanley Myers - Never Will You Know (3:16)
16. Stanley Myers - Love In 45 Seconds (2:26)
17. Stanley Myers - Statues Of The Night (2:21)
18. Hans Zimmer - Parade Of Masks (3:01)
19. Stanley Myers - Married Love (2:50)
20. Hans Zimmer - Madame Pembroke's Gigolo (2:47)
21. Stanley Myers - The Young ''O'' (2:33)
22. Hans Zimmer - Ouverture To A Party (1:13)
23. Stanley Myers - Deviation (2:52)
24. Stanley Myers - Initiation Of Carole (3:39)
25. Stanley Myers - Deviation (2:16)
26. Stanley Myers - Triumph Of ''O'' (3:06)
27. Stanley Myers - O's Theme (2:55)
Exact Audio Copy V0.99 prebeta 4 from 23. January 2008

EAC extraction logfile from 29. June 2008, 23:56

Various / Histoire D'O & Histoire D'O No.2

Used drive : HL-DT-STDVDRAM GSA-H42L Adapter: 0 ID: 0

Read mode : Secure
Utilize accurate stream : Yes
Defeat audio cache : Yes
Make use of C2 pointers : No

Read offset correction : 667
Overread into Lead-In and Lead-Out : No
Fill up missing offset samples with silence : Yes
Delete leading and trailing silent blocks : No
Null samples used in CRC calculations : Yes
Used interface : Native Win32 interface for Win NT & 2000
Gap handling : Appended to previous track

Used output format : User Defined Encoder
Selected bitrate : 768 kBit/s
Quality : High
Add ID3 tag : No
Command line compressor : C:\Program Files\Exact Audio Copy\FLAC\FLAC.EXE
Additional command line options : -V -8 -T "artist=%a" -T "title=%t" -T "album=%g" -T "date=%y" -T "tracknumber=%n" -T "genre=%m" %s

TOC of the extracted CD

Track | Start | Length | Start sector | End sector
---------------------------------------------------------
1 | 0:00.00 | 3:07.72 | 0 | 14096
2 | 3:07.72 | 2:31.13 | 14097 | 25434
3 | 5:39.10 | 4:24.15 | 25435 | 45249
4 | 10:03.25 | 2:00.70 | 45250 | 54319
5 | 12:04.20 | 0:55.02 | 54320 | 58446
6 | 12:59.22 | 2:52.68 | 58447 | 71414
7 | 15:52.15 | 3:15.12 | 71415 | 86051
8 | 19:07.27 | 1:39.55 | 86052 | 93531
9 | 20:47.07 | 3:08.15 | 93532 | 107646
10 | 23:55.22 | 1:03.35 | 107647 | 112406
11 | 24:58.57 | 1:58.10 | 112407 | 121266
12 | 26:56.67 | 1:24.70 | 121267 | 127636
13 | 28:21.62 | 1:59.10 | 127637 | 136571
14 | 30:20.72 | 2:42.40 | 136572 | 148761
15 | 33:03.37 | 3:19.15 | 148762 | 163701
16 | 36:22.52 | 2:28.63 | 163702 | 174864
17 | 38:51.40 | 2:24.07 | 174865 | 185671
18 | 41:15.47 | 3:04.18 | 185672 | 199489
19 | 44:19.65 | 2:52.57 | 199490 | 212446
20 | 47:12.47 | 2:50.18 | 212447 | 225214
21 | 50:02.65 | 2:36.02 | 225215 | 236916
22 | 52:38.67 | 1:14.28 | 236917 | 242494
23 | 53:53.20 | 2:55.35 | 242495 | 255654
24 | 56:48.55 | 3:41.60 | 255655 | 272289
25 | 60:30.40 | 2:18.55 | 272290 | 282694
26 | 62:49.20 | 3:08.47 | 282695 | 296841
27 | 65:57.67 | 2:55.20 | 296842 | 309986

Track 1

Filename C:\EAC Rips\Histoire D'O & Histoire D'O No.2 - 1997\01 - Pierre Bachelet - Histoire D'O.wav

Pre-gap length 0:00:02.00

Peak level 95.3 %
Track quality 99.9 %
Test CRC A0E708C0
Copy CRC A0E708C0
Accurately ripped (confidence 2) [F9E2805B]
Copy OK

Track 2

Filename C:\EAC Rips\Histoire D'O & Histoire D'O No.2 - 1997\02 - Pierre Bachelet - O' Et La Rencontre.wav

Pre-gap length 0:00:02.20

Peak level 66.6 %
Track quality 100.0 %
Test CRC 922C2C8E
Copy CRC 922C2C8E
Accurately ripped (confidence 2) [B7919642]
Copy OK

Track 3

Filename C:\EAC Rips\Histoire D'O & Histoire D'O No.2 - 1997\03 - Pierre Bachelet - O' Et Le Chateau De Roissy.wav

Pre-gap length 0:00:02.33

Peak level 73.6 %
Track quality 100.0 %
Test CRC 6165DA08
Copy CRC 6165DA08
Accurately ripped (confidence 2) [DCBD94C8]
Copy OK

Track 4

Filename C:\EAC Rips\Histoire D'O & Histoire D'O No.2 - 1997\04 - Pierre Bachelet - O' Et L' Amour A Trois.wav

Pre-gap length 0:00:02.41

Peak level 86.7 %
Track quality 100.0 %
Test CRC B58231D5
Copy CRC B58231D5
Accurately ripped (confidence 2) [915F8F12]
Copy OK

Track 5

Filename C:\EAC Rips\Histoire D'O & Histoire D'O No.2 - 1997\05 - Pierre Bachelet - O' Apres.wav

Pre-gap length 0:00:02.25

Peak level 64.9 %
Track quality 100.0 %
Test CRC EC75DF75
Copy CRC EC75DF75
Accurately ripped (confidence 2) [AC370942]
Copy OK

Track 6

Filename C:\EAC Rips\Histoire D'O & Histoire D'O No.2 - 1997\06 - Pierre Bachelet - O' She's A Lady.wav

Pre-gap length 0:00:02.25

Peak level 95.1 %
Track quality 100.0 %
Test CRC 816EE8F8
Copy CRC 816EE8F8
Accurately ripped (confidence 2) [21DB7467]
Copy OK

Track 7

Filename C:\EAC Rips\Histoire D'O & Histoire D'O No.2 - 1997\07 - Pierre Bachelet - Tout Cela Est Pour Toi.wav

Pre-gap length 0:00:02.42

Peak level 95.0 %
Track quality 100.0 %
Test CRC E4A8E20D
Copy CRC E4A8E20D
Accurately ripped (confidence 2) [BE671D63]
Copy OK

Track 8

Filename C:\EAC Rips\Histoire D'O & Histoire D'O No.2 - 1997\08 - Pierre Bachelet - O' Avec Pierre.wav

Pre-gap length 0:00:02.53

Peak level 76.6 %
Track quality 100.0 %
Test CRC 499212B2
Copy CRC 499212B2
Accurately ripped (confidence 2) [32D53192]
Copy OK

Track 9

Filename C:\EAC Rips\Histoire D'O & Histoire D'O No.2 - 1997\09 - Pierre Bachelet - O' Et Sir Stephen.wav

Pre-gap length 0:00:01.38

Peak level 94.9 %
Track quality 100.0 %
Test CRC 9063B813
Copy CRC 9063B813
Accurately ripped (confidence 2) [C6C6727E]
Copy OK

Track 10

Filename C:\EAC Rips\Histoire D'O & Histoire D'O No.2 - 1997\10 - Pierre Bachelet - O' Et La Photo De Jacqueline.wav

Pre-gap length 0:00:02.42

Peak level 86.9 %
Track quality 100.0 %
Test CRC A2512955
Copy CRC A2512955
Accurately ripped (confidence 2) [595F3000]
Copy OK

Track 11

Filename C:\EAC Rips\Histoire D'O & Histoire D'O No.2 - 1997\11 - Pierre Bachelet - O' Comme Alice.wav

Pre-gap length 0:00:02.22

Peak level 72.9 %
Track quality 100.0 %
Test CRC D9DFAFB5
Copy CRC D9DFAFB5
Accurately ripped (confidence 2) [76289BC6]
Copy OK

Track 12

Filename C:\EAC Rips\Histoire D'O & Histoire D'O No.2 - 1997\12 - Pierre Bachelet - O' Et La Valse Du Gramophone.wav

Pre-gap length 0:00:02.37

Peak level 95.3 %
Track quality 100.0 %
Test CRC 2774D5BC
Copy CRC 2774D5BC
Accurately ripped (confidence 2) [A90EC4AF]
Copy OK

Track 13

Filename C:\EAC Rips\Histoire D'O & Histoire D'O No.2 - 1997\13 - Pierre Bachelet - O' Et L' Amour D' Yvan.wav

Pre-gap length 0:00:02.41

Peak level 98.4 %
Track quality 100.0 %
Test CRC F780EA3C
Copy CRC F780EA3C
Accurately ripped (confidence 2) [C4A38DC4]
Copy OK

Track 14

Filename C:\EAC Rips\Histoire D'O & Histoire D'O No.2 - 1997\14 - Pierre Bachelet - O' Comme Histoire D'O.wav

Pre-gap length 0:00:02.42

Peak level 95.1 %
Track quality 100.0 %
Test CRC CB50AE51
Copy CRC CB50AE51
Accurately ripped (confidence 2) [8088BCD4]
Copy OK

Track 15

Filename C:\EAC Rips\Histoire D'O & Histoire D'O No.2 - 1997\15 - Mort Shuman - Stanley Myers - Never Will You Know.wav

Pre-gap length 0:00:03.42

Peak level 94.8 %
Track quality 100.0 %
Test CRC C812F1F7
Copy CRC C812F1F7
Accurately ripped (confidence 2) [CF5E0CC3]
Copy OK

Track 16

Filename C:\EAC Rips\Histoire D'O & Histoire D'O No.2 - 1997\16 - Stanley Myers - Love In 45 Seconds.wav

Pre-gap length 0:00:02.25

Peak level 97.7 %
Track quality 100.0 %
Test CRC A626B942
Copy CRC A626B942
Accurately ripped (confidence 2) [6C04F4C3]
Copy OK

Track 17

Filename C:\EAC Rips\Histoire D'O & Histoire D'O No.2 - 1997\17 - Stanley Myers - Statues Of The Night.wav

Pre-gap length 0:00:02.24

Peak level 84.9 %
Track quality 99.9 %
Test CRC 3D8CCCFC
Copy CRC 3D8CCCFC
Accurately ripped (confidence 2) [D269390F]
Copy OK

Track 18

Filename C:\EAC Rips\Histoire D'O & Histoire D'O No.2 - 1997\18 - Hans Zimmer - Parade Of Masks.wav

Pre-gap length 0:00:02.48

Peak level 95.5 %
Track quality 100.0 %
Test CRC 493ED852
Copy CRC 493ED852
Accurately ripped (confidence 2) [850676AC]
Copy OK

Track 19

Filename C:\EAC Rips\Histoire D'O & Histoire D'O No.2 - 1997\19 - Stanley Myers - Married Love.wav

Pre-gap length 0:00:02.36

Peak level 65.9 %
Track quality 100.0 %
Test CRC 11C39964
Copy CRC 11C39964
Accurately ripped (confidence 2) [3A888C4B]
Copy OK

Track 20

Filename C:\EAC Rips\Histoire D'O & Histoire D'O No.2 - 1997\20 - Hans Zimmer - Madame Pembroke's Gigolo.wav

Pre-gap length 0:00:02.41

Peak level 95.4 %
Track quality 100.0 %
Test CRC A163D500
Copy CRC A163D500
Accurately ripped (confidence 2) [653C13AB]
Copy OK

Track 21

Filename C:\EAC Rips\Histoire D'O & Histoire D'O No.2 - 1997\21 - Stanley Myers - The Young ''O''.wav

Pre-gap length 0:00:02.52

Peak level 87.6 %
Track quality 100.0 %
Test CRC 172CBB71
Copy CRC 172CBB71
Accurately ripped (confidence 2) [5BBBC76B]
Copy OK

Track 22

Filename C:\EAC Rips\Histoire D'O & Histoire D'O No.2 - 1997\22 - Stanley Myers - Initiation Of Carole.wav

Pre-gap length 0:00:02.29

Peak level 94.4 %
Track quality 99.8 %
Test CRC 032D130E
Copy CRC 032D130E
Accurately ripped (confidence 2) [1B4A04FA]
Copy OK

Track 23

Filename C:\EAC Rips\Histoire D'O & Histoire D'O No.2 - 1997\23 - Stanley Myers - Deviation.wav

Pre-gap length 0:00:00.80

Peak level 57.0 %
Track quality 100.0 %
Test CRC CF0B1F99
Copy CRC CF0B1F99
Accurately ripped (confidence 2) [5E04607C]
Copy OK

Track 24

Filename C:\EAC Rips\Histoire D'O & Histoire D'O No.2 - 1997\24 - Stanley Myers - Initiation Of Carole.wav

Pre-gap length 0:00:02.42

Peak level 96.2 %
Track quality 99.9 %
Test CRC 470F41B8
Copy CRC 470F41B8
Accurately ripped (confidence 2) [21D6EA01]
Copy OK

Track 25

Filename C:\EAC Rips\Histoire D'O & Histoire D'O No.2 - 1997\25 - Stanley Myers - Deviation.wav

Pre-gap length 0:00:02.40

Peak level 97.7 %
Track quality 100.0 %
Test CRC A8587801
Copy CRC A8587801
Accurately ripped (confidence 2) [193E0A82]
Copy OK

Track 26

Filename C:\EAC Rips\Histoire D'O & Histoire D'O No.2 - 1997\26 - Stanley Myers - Triumph Of ''O''.wav

Pre-gap length 0:00:02.40

Peak level 95.5 %
Track quality 99.9 %
Test CRC 199FAD4F
Copy CRC 199FAD4F
Accurately ripped (confidence 2) [A12542E1]
Copy OK

Track 27

Filename C:\EAC Rips\Histoire D'O & Histoire D'O No.2 - 1997\27 - Stanley Myers - O's Theme.wav

Pre-gap length 0:00:02.33

Peak level 99.9 %
Track quality 100.0 %
Test CRC BD797F96
Copy CRC BD797F96
Accurately ripped (confidence 2) [3BAA0355]
Copy OK

All tracks accurately ripped

No errors occurred

End of status report


Трекер:  [ 08-Июл-2011 17:32 ]

  

Скачать .torrent

Размер .torrent файла 17 KB


Размер: 366 MB
Хэш (hash) релиза: e77958beb9aa25398b223df16a25c7dd34eb76be

Еще никто не оставлял запись к записи скачать торрент Histoire DO & Histoire dO: Chapitre 2История «О» и История «О» 2: Возвращение в Руасс . Будь первым!

!Обратная связь