Скачать через торрент музыку Armand Amar - La Jeune Fille et les Loups Девушка и волки - 2008, APE бесплатно без регистрации torrent

Если у вас наблюдаются проблемы со скриншотами, переходом по ссылками, скачиванием торрентов - проблемы в блокировщике рекламы AdBlock. #хорошегоДня!


Статистика раздачи
Размер:  211 MB   |    Зарегистрирован:  6 лет 8 месяцев   |    .torrent скачан:  52 раза   |   
Раздают:  1  
   
Загрузка...
 
Автор Сообщение

Mos

avatar Mos


Armand Amar – La Jeune Fille et les Loups
Score of the motion picture by Gilles Legrand

Жанр: Score
Год выпуска диска: 2008
Производитель диска: France
Аудио кодек: APE
Тип рипа: image+.cue
Битрейт аудио: lossless
Продолжительность: 37:19
Автор оригинальной раздачи: FidorkaPosleda (Hqshare)

Трэклист:
01. Ouverture (02:48)
02. Le Petit Loup (2:35)
03. La Jeune Fille et les Loups I (02:09)
04. Giuseppe (04:37)
05. Zarmov (03:16)
06. Perdu dans la Neige (03:44)
07. La Naissance (01:24)
08. La Jeune Fille at les Loups II (02:21)
09. La Tanière (3:00)
10. Le Piège (3:09)
11. La Bagarre (3:19)
12. La Jeune Fille et les Loups III (4:29)
 
Exact Audio Copy V0.99 prebeta 3 from 28. July 2007

EAC extraction logfile from 30. December 2008, 12:57

Armand Amar / La Jeune Fille Et Les Loups

Used drive : HL-DT-STDVD-RAM GSA-H20L Adapter: 0 ID: 0

Read mode : Secure
Utilize accurate stream : Yes
Defeat audio cache : Yes
Make use of C2 pointers : No

Read offset correction : 102
Overread into Lead-In and Lead-Out : No
Fill up missing offset samples with silence : Yes
Delete leading and trailing silent blocks : No
Null samples used in CRC calculations : Yes
Used interface : Installed external ASPI interface

Used output format : Internal WAV Routines
Sample format : 44.100 Hz; 16 Bit; Stereo

TOC of the extracted CD

Track | Start | Length | Start sector | End sector
---------------------------------------------------------
1 | 0:00.00 | 2:50.50 | 0 | 12799
2 | 2:50.50 | 2:37.67 | 12800 | 24641
3 | 5:28.42 | 2:09.70 | 24642 | 34386
4 | 7:38.37 | 4:39.14 | 34387 | 55325
5 | 12:17.51 | 3:18.02 | 55326 | 70177
6 | 15:35.53 | 3:46.32 | 70178 | 87159
7 | 19:22.10 | 1:27.24 | 87160 | 93708
8 | 20:49.34 | 2:23.44 | 93709 | 104477
9 | 23:13.03 | 3:01.67 | 104478 | 118119
10 | 26:14.70 | 3:11.25 | 118120 | 132469
11 | 29:26.20 | 3:23.65 | 132470 | 147759
12 | 32:50.10 | 4:29.26 | 147760 | 167960

Range status and errors

Selected range

Filename C:\Armand Amar - La Jeune Fille Et Les Loups.wav

Peak level 96.6 %
Range quality 100.0 %
Copy CRC CC42370A
Copy OK

No errors occurred

AccurateRip summary

Track 1 not present in database
Track 2 not present in database
Track 3 not present in database
Track 4 not present in database
Track 5 not present in database
Track 6 not present in database
Track 7 not present in database
Track 8 not present in database
Track 9 not present in database
Track 10 not present in database
Track 11 not present in database
Track 12 not present in database

None of the tracks are present in the AccurateRip database

End of status report
 
auCDtect: CD records authenticity detector, version

0.8.2Copyright (c) 2004 Oleg Berngardt. All rights reserved.Copyright (c) 2004 Alexander Djourik. All rights reserved.------------------------------------------------------------Processing file: [Armand Amar - La Jeune Fille Et Les Loups.wav]

------------------------------------------------------------This track looks like CDDA with probability 100%

------------------------------------------------------------Final Conclusion:------------------------------------------------------------These tracks looks like CDDA with probability 100%


Трекер:  [ 26-Дек-2010 13:50 ]

  

Скачать .torrent

Размер .torrent файла 17 KB


Размер: 211 MB
Хэш (hash) релиза: 82774ef5d804d260df08aa83ba2de4d78f961f33

Еще никто не оставлял запись к записи скачать торрент Armand Amar - La Jeune Fille et les Loups Девушка и волки - 2008, APE . Будь первым!

!Обратная связь