Скачать через торрент музыку Досье Ипкресс The Ipcress File бесплатно без регистрации torrent

Если у вас наблюдаются проблемы со скриншотами, переходом по ссылками, скачиванием торрентов - проблемы в блокировщике рекламы AdBlock. #хорошегоДня!


Статистика раздачи
Размер:  241 MB   |    Зарегистрирован:  6 лет 8 месяцев   |    .torrent скачан:  58 раз   |   
Раздают:  1  
   
Загрузка...
 
Автор Сообщение

Mos

avatar Mos


Досье Ипкресс / The Ipcress File

Жанр: Score
Композитор: John Barry
Год выпуска диска: 2002
Год выпуска фильма: 1965
Страна-производитель диска: Великобритания
Издатель (лейбл): Silva Screen
Номер по каталогу: FILMCD 605
Аудио кодек: FLAC (*.flac)
Тип рипа: image+.cue
Битрейт аудио: lossless
Продолжительность: 42:31
Источник: emule

Треклист:
01. Mail Title (04:17)
02. Dialogue "I just love the Army." (00:12)
03. Alone In Thre-Quarter Time (02:30)
04. Dialogue "Is this a promotion, sir?" (00:28)
05. A Man Alone (1) (03:15)
06. Dialogue "A fair appraisal." (00:25)
07. Meeting With Grantby And Fight (03:28)
08. Dialogue "Do you like misic?" (00:03)
09. Jazz Along Alone (03:13)
10. Dialogue "I like birds best." (00:14)
11. A Man Alone (2) (03:20)
12. Dialogue "Button mushrooms and birds." (00:45)
13. The Death Of Carswell (03:41)
14. Dialogue "The best meal youґve ever eaten." (00:48)
15. Alone Blues (06:19)
16. Dialogue "Thereґs a dead American agent in my flat." (00:14)
17. If You're Not Clean, I'll Kill You (02:25)
18. Dialogue "Lose yourself." (00:37)
19. Goodbye Harry (02:29)
20. Dialogue "You used me." (00:15)
21. A Man Alone (3) (02:56)
 
EAC extraction logfile from 6. May 2006, 14:33 for CDJohn Barry / The Ipcress File

Used drive : HL-DT-STCD-RW GCE-8526B Adapter: 1 ID: 1Read mode : Secure with NO C2, accurate stream, disable cacheRead offset correction : 6Overread into Lead-In and Lead-Out : No

Used output format : C:\Programmi\Eac\BIN\flac.exe (User Defined Encoder) 320 kBit/s Additional command line options : -8 -V %s

Other options : Fill up missing offset samples with silence : Yes Delete leading and trailing silent blocks : No Installed external ASPI interface

Range status and errorsSelected range Filename C:\EAC\John Barry - The Ipcress File [FLAC CUE SCAN]\John Barry - The Ipcress File.Flac.wav

Peak level 100.0 % Range quality 100.0 % CRC A037D8CA Copy OK

No errors occured

End of status report
 
REM GENRE SoundtrackREM DATE 1965REM DISCID 4B09F715REM COMMENT "ExactAudioCopy v0.95b3"CATALOG 0000000000000PERFORMER "John Barry"TITLE "The Ipcress File"FILE "John Barry - The Ipcress File.Flac" WAVE TRACK 01 AUDIO TITLE "Main Title" PERFORMER "John Barry" ISRC GBAJC0203754 INDEX 01 00:00:00 TRACK 02 AUDIO TITLE "'I just love the army'" PERFORMER "John Barry" INDEX 01 04:15:07 TRACK 03 AUDIO TITLE "Alone in three-quarter time" PERFORMER "John Barry" ISRC GBAJC0203755 INDEX 01 04:27:08 TRACK 04 AUDIO TITLE "Is this a promotion, sir?'" PERFORMER "John Barry" ISRC GBAJC0203755 INDEX 01 06:57:54 TRACK 05 AUDIO TITLE "A man alone (1)" PERFORMER "John Barry" ISRC GBAJC0203759 INDEX 01 07:25:66 TRACK 06 AUDIO TITLE "'A fair appraisal'" PERFORMER "John Barry" INDEX 01 10:41:26 TRACK 07 AUDIO TITLE "Meeting with Grantby and fight" PERFORMER "John Barry" ISRC GBAJC0203756 INDEX 01 11:06:59 TRACK 08 AUDIO TITLE "'Do you like music ?'" PERFORMER "John Barry" INDEX 01 14:35:20 TRACK 09 AUDIO TITLE "Jazz along alone" PERFORMER "John Barry" ISRC GBAJC0203757 INDEX 01 14:39:52 TRACK 10 AUDIO TITLE "'I like birds beat'" PERFORMER "John Barry" INDEX 01 17:52:67 TRACK 11 AUDIO TITLE "A man alone (2)" PERFORMER "John Barry" ISRC GBAJC0203760 INDEX 01 18:07:05 TRACK 12 AUDIO TITLE "'Button mushrooms and birds'" PERFORMER "John Barry" ISRC GBAJC0203760 INDEX 01 21:27:73 TRACK 13 AUDIO TITLE "The death of Carswell" PERFORMER "John Barry" ISRC GBAJC0203758 INDEX 01 22:13:62 TRACK 14 AUDIO TITLE "The best meal you've ever eaten'" PERFORMER "John Barry" INDEX 01 25:55:51 TRACK 15 AUDIO TITLE "Alone blues" PERFORMER "John Barry" ISRC GBAJC0203762 INDEX 01 26:43:73 TRACK 16 AUDIO TITLE "'There's a dead American agent in my flat'" PERFORMER "John Barry" INDEX 01 33:03:05 TRACK 17 AUDIO TITLE "If you're not clean, I'll kill you" PERFORMER "John Barry" ISRC GBAJC0203761 INDEX 01 33:17:19 TRACK 18 AUDIO TITLE "'Lose yourself'" PERFORMER "John Barry" INDEX 01 35:42:66 TRACK 19 AUDIO TITLE "Goodbye Harry" PERFORMER "John Barry" ISRC GBAJC0203763 INDEX 01 36:19:71 TRACK 20 AUDIO TITLE "'You used me'" PERFORMER "John Barry" INDEX 01 39:19:51 TRACK 21 AUDIO TITLE "A man alone (3)" PERFORMER "John Barry" ISRC GBAJC0203764 INDEX 01 39:34:67
 
Started at: суббота, 13. 11. 2010. - 0:15.36

1 file found

1 -===- C:\!_TORRENT\John Barry - The Ipcress File (2002) [FLAC]\John Barry - The Ipcress File.Flac Extracted successfully Conclusion: This track looks like CDDA with probability 99% Tempfile successfully deleted.

Finished at: суббота, 13. 11. 2010. - 0:20.04 (operation time: 0:04.27)


Трекер:  [ 26-Дек-2010 13:54 ]

  

Скачать .torrent

Размер .torrent файла 20 KB


Размер: 241 MB
Хэш (hash) релиза: 74887c1f48beaf46f2e146e0f27baa223a6403a1

Еще никто не оставлял запись к записи скачать торрент Досье Ипкресс The Ipcress File . Будь первым!

!Обратная связь