Скачать через торрент музыку Лучшая Музыка и Песни Из Фильмов Леонида Гайдая - 2002, FLAC бесплатно без регистрации torrent

Если у вас наблюдаются проблемы со скриншотами, переходом по ссылками, скачиванием торрентов - проблемы в блокировщике рекламы AdBlock. #хорошегоДня!


Статистика раздачи
Размер:  180 MB   |    Зарегистрирован:  4 года 3 месяца   |    .torrent скачан:  29 раз   |   
Раздают:  1  
   
Загрузка...
 
Автор Сообщение

Galfimbul

avatar Galfimbul


Лучшая Музыка и Песни Из Фильмов Леонида Гайдая

Жанр: Soundtrack
Композитор: Александр Зацепин
Исполнители: Аида Ведищева, Юрий Никулин, Андрей Миронов, Валерий Золотухин
Год выпуска диска: 2002
Страна-производитель диска: Россия
Издатель (лейбл): Мистерия Дистрибьюшин
Номер по каталогу: MGM-018
Аудиокодек: FLAC (*.flac)
Тип рипа: image+.cue
Битрейт аудио: lossless
Продолжительность: 43:58
Источник: собственный рип
Наличие сканов в содержимом раздачи: да

Треклист:
01. Пора,турист
02. Песенка о медведях
03. Остров невезения
04. "Русо туристо"
05. Интермедия
06. Маруся
07. Интермедия
08. Вдруг,как в сказке скрипнула дверь
09. Интермедия
10. Помоги мне
11. Интермедия
12. Если б Я был султан
13. Твист
14. Песня про зайцев
15. Интермедия
16. Песня про медведей (финал)
Exact Audio Copy V1.0 beta 2 from 29. April 2011

Отчёт EAC об извлечении, выполненном 3. июля 2011, 22:07

Various / Музыка из фильмов Л.Гайдая

Дисковод: PIONEER DVD-RW DVR-118L Adapter: 0 ID: 0

Режим чтения : ДостоверностьИспользование точного потока : ДаОтключение кэша аудио : ДаИспользование указателей C2 : Нет

Коррекция смещения при чтении : 6Способность читать области Lead-in и Lead-out : НетЗаполнение пропущенных сэмплов тишиной : ДаУдаление блоков с тишиной в начале и конце : НетПри вычислениях CRC использовались нулевые сэмплы : ДаИнтерфейс : Встроенный Win32-интерфейс для Win NT/2000

Выходной формат : Пользовательский кодировщикВыбранный битрейт : 128 kBit/sКачество : ВысокийДобавление ID3-тэга : НетУтилита сжатия : C:\Program Files\Exact Audio Copy\FLAC\FLAC.EXEДополнительные параметры : -V -8 -T "Date=%year%" -T "Genre=%genre%" %source%

TOC извлечённого CD

Трек | Старт | Длительность | Начальный сектор | Конечный сектор --------------------------------------------------------------------- 1 | 0:00.00 | 1:24.52 | 0 | 6351 2 | 1:24.52 | 2:26.06 | 6352 | 17307 3 | 3:50.58 | 3:09.69 | 17308 | 31551 4 | 7:00.52 | 3:09.50 | 31552 | 45776 5 | 10:10.27 | 2:13.02 | 45777 | 55753 6 | 12:23.29 | 2:32.51 | 55754 | 67204 7 | 14:56.05 | 2:43.40 | 67205 | 79469 8 | 17:39.45 | 4:50.65 | 79470 | 101284 9 | 22:30.35 | 0:44.70 | 101285 | 104654 10 | 23:15.30 | 4:43.18 | 104655 | 125897 11 | 27:58.48 | 2:08.27 | 125898 | 135524 12 | 30:07.00 | 3:10.10 | 135525 | 149784 13 | 33:17.10 | 2:07.60 | 149785 | 159369 14 | 35:24.70 | 3:14.12 | 159370 | 173931 15 | 38:39.07 | 3:29.43 | 173932 | 189649 16 | 42:08.50 | 1:50.03 | 189650 | 197902

Характеристики диапазона извлечения и сообщения об ошибках

Выбранный диапазон

Имя файла I:\Раздачи\Музыка из фильмов Леонида Гайдая 2\Various - Музыка из фильмов Л.Гайдая.wav

Пиковый уровень 100.0 %1.7 X Качество диапазона 99.9 % CRC теста B54EC5D9 CRC копии B54EC5D9 Копирование... OK

Ошибок не произошло

AccurateRip: сводка

Трек 1 нет в базе данныхТрек 2 нет в базе данныхТрек 3 нет в базе данныхТрек 4 нет в базе данныхТрек 5 нет в базе данныхТрек 6 нет в базе данныхТрек 7 нет в базе данныхТрек 8 нет в базе данныхТрек 9 нет в базе данныхТрек 10 нет в базе данныхТрек 11 нет в базе данныхТрек 12 нет в базе данныхТрек 13 нет в базе данныхТрек 14 нет в базе данныхТрек 15 нет в базе данныхТрек 16 нет в базе данных

Ни одного трека нет в базе AccurateRip

Конец отчёта

==== AB4945EC2A3E99C629E998A915CB8473224F79EA16029DC20064E3AF13935EBD ====
REM GENRE FolkREM DATE 2002REM DISCID D20A4E10REM COMMENT "ExactAudioCopy v1.0b2"PERFORMER "Various"TITLE "Музыка из фильмов Л.Гайдая"FILE "Various - Музыка из фильмов Л.Гайдая.flac" WAVE TRACK 01 AUDIO TITLE "Пора,турист" PERFORMER "Various" INDEX 01 00:00:00 TRACK 02 AUDIO TITLE "Песенка о медведях" PERFORMER "Various" INDEX 01 01:24:52 TRACK 03 AUDIO TITLE "Остров невезения" PERFORMER "Various" INDEX 01 03:50:58 TRACK 04 AUDIO TITLE "'Руссо туристо'" PERFORMER "Various" INDEX 01 07:00:52 TRACK 05 AUDIO TITLE "Интермедия" PERFORMER "Various" INDEX 01 10:10:27 TRACK 06 AUDIO TITLE "Маруся" PERFORMER "Various" INDEX 01 12:23:29 TRACK 07 AUDIO TITLE "Интермедия" PERFORMER "Various" INDEX 01 14:56:05 TRACK 08 AUDIO TITLE "Вдруг,как в сказке..." PERFORMER "Various" INDEX 01 17:39:45 TRACK 09 AUDIO TITLE "Интермедия" PERFORMER "Various" INDEX 01 22:30:35 TRACK 10 AUDIO TITLE "Помогите мне" PERFORMER "Various" INDEX 01 23:15:30 TRACK 11 AUDIO TITLE "Интермедия" PERFORMER "Various" INDEX 01 27:58:48 TRACK 12 AUDIO TITLE "Если б Я был султан" PERFORMER "Various" INDEX 01 30:07:00 TRACK 13 AUDIO TITLE "Твист" PERFORMER "Various" INDEX 01 33:17:10 TRACK 14 AUDIO TITLE "Песня про зайцев" PERFORMER "Various" INDEX 01 35:24:70 TRACK 15 AUDIO TITLE "Интермедия" PERFORMER "Various" INDEX 01 38:39:07 TRACK 16 AUDIO TITLE "Песня про медведев (финал)" PERFORMER "Various" INDEX 01 42:08:50
AUDIOCHECKER v2.0 beta (build 457) - by Dester - opdester@freemail.hu~~~~~~~~~~~~~~~~~~~~~~~~~~~~~~~~~~

Начато: суббота, 25. 06. 2011. - 23:17.04Найдено файлов: 16

01 -===- трек 1 в приводе Трек успешно извлечён Заключение: этот трек - CDDA с вероятностью 99% Временный файл удалён.

02 -===- трек 2 в приводе Трек успешно извлечён Заключение: этот трек - CDDA с вероятностью 42% Временный файл удалён.

03 -===- трек 3 в приводе Трек успешно извлечён Заключение: этот трек - CDDA с вероятностью 100% Временный файл удалён.

04 -===- трек 4 в приводе Трек успешно извлечён Заключение: не удалось определить источник этого трека Временный файл удалён.

05 -===- трек 5 в приводе Трек успешно извлечён Заключение: не удалось определить источник этого трека Временный файл удалён.

06 -===- трек 6 в приводе Трек успешно извлечён Заключение: этот трек - CDDA с вероятностью 94% Временный файл удалён.

07 -===- трек 7 в приводе Трек успешно извлечён Заключение: не удалось определить источник этого трека Временный файл удалён.

08 -===- трек 8 в приводе Трек успешно извлечён Заключение: не удалось определить источник этого трека Временный файл удалён.

09 -===- трек 9 в приводе Трек успешно извлечён Заключение: этот трек - CDDA с вероятностью 100% Временный файл удалён.

10 -===- трек 10 в приводе Трек успешно извлечён Заключение: этот трек - CDDA с вероятностью 100% Временный файл удалён.

11 -===- трек 11 в приводе Трек успешно извлечён Заключение: не удалось определить источник этого трека Временный файл удалён.

12 -===- трек 12 в приводе Трек успешно извлечён Заключение: не удалось определить источник этого трека Временный файл удалён.

13 -===- трек 13 в приводе Трек успешно извлечён Заключение: не удалось определить источник этого трека Временный файл удалён.

14 -===- трек 14 в приводе Трек успешно извлечён Заключение: этот трек - CDDA с вероятностью 99% Временный файл удалён.

15 -===- трек 15 в приводе Трек успешно извлечён Заключение: этот трек - MPEG с вероятностью 95% Временный файл удалён.

16 -===- трек 16 в приводе Трек успешно извлечён Заключение: не удалось определить источник этого трека Временный файл удалён.

Завершено: суббота, 25. 06. 2011. - 23:43.34 (Время операции: 0:26.29)


Трекер:  [ 12-Июн-2013 16:35 ]

  

Скачать .torrent

Размер .torrent файла 16 KB


Размер: 180 MB
Хэш (hash) релиза: 566ae1de810669f7835b113b7a9aff1931ac1d47

bot

Топик был перенесен в форум Саундтреки к фильмам и мультфильмам (lossless)

Перенес Galfimbul

Хотите добавить комментарий к записи скачать торрент Лучшая Музыка и Песни Из Фильмов Леонида Гайдая - 2002, FLAC

!Обратная связь