Скачать через торрент музыку Мио, мой Мио Mio min Mio бесплатно без регистрации torrent

Если у вас наблюдаются проблемы со скриншотами, переходом по ссылками, скачиванием торрентов - проблемы в блокировщике рекламы AdBlock. #хорошегоДня!


Статистика раздачи
Размер:  227 MB   |    Зарегистрирован:  4 года 3 месяца   |    .torrent скачан:  22 раза   |   
Раздают:  1  
   
Загрузка...
 
Автор Сообщение

Galfimbul

avatar Galfimbul


Мио, мой Мио / Mio min Mio / Mio in the Land of Faraway

Жанр: Score
Композитор: Anders Eljas
Год выпуска диска: 1988
Год выпуска фильма: 1987
Страна-производитель диска: Sweden
Издатель (лейбл): CBS Records
Аудиокодек: FLAC (*.flac)
Тип рипа: image+.cue
Битрейт аудио: lossless
Продолжительность: 47:35
Источник: собственный рип
Наличие сканов в содержимом раздачи: нет

Треклист:
01. Mio Overture
02. Kite-Flying
03. Aunt Edna's Waiting At Home
04. Bosse Runs Away
05. The Journey To The Land Of Faraway
06. Mio My Mio #1
07. The Shepherd's Flute #1
08. Kato's Icy Wind
09. The Bridge Of The Morning Light
10. The Land Outside
11. Miramis Is Captured
12. The Hunt For Mio And Jum-Jum
13. The Shepherd's Flute #2
14. The Sword
15. Inside Kato's Castle
16. Prisoners Of Kato
17. To The Dungeon
18. Return Of The Sword
19. The Final Battle
20. The Reunion
21. Mio My Mio
Exact Audio Copy V0.99 prebeta 5 from 4. May 2009

Отчёт EAC об извлечении, выполненном 26. апреля 2012, 21:06

Unknown Artist / Unknown Title

Дисковод: TSSTcorpCDDVDW SH-222AB Adapter: 1 ID: 0

Режим чтения : ДостоверностьИспользование точного потока : ДаОтключение кэша аудио : ДаИспользование указателей C2 : Нет

Коррекция смещения при чтении : 6Способность читать области Lead-in и Lead-out : НетЗаполнение пропущенных сэмплов тишиной : ДаУдаление блоков с тишиной в начале и конце : НетПри вычислениях CRC использовались нулевые сэмплы : ДаИнтерфейс : Встроенный Win32-интерфейс для Win NT/2000

Выходной формат : Внутренние WAV-операцииФормат сэмплов : 44.100 Гц; 16 бит; стерео

TOC извлечённого CD

Трек | Старт | Длительность | Начальный сектор | Конечный сектор --------------------------------------------------------------------- 1 | 0:00.00 | 3:21.01 | 0 | 15075 2 | 3:21.01 | 1:25.51 | 15076 | 21501 3 | 4:46.52 | 0:48.57 | 21502 | 25158 4 | 5:35.34 | 3:57.73 | 25159 | 43006 5 | 9:33.32 | 5:12.26 | 43007 | 66432 6 | 14:45.58 | 1:31.30 | 66433 | 73287 7 | 16:17.13 | 0:31.63 | 73288 | 75675 8 | 16:49.01 | 2:14.65 | 75676 | 85790 9 | 19:03.66 | 1:50.28 | 85791 | 94068 10 | 20:54.19 | 1:54.47 | 94069 | 102665 11 | 22:48.66 | 1:58.09 | 102666 | 111524 12 | 24:47.00 | 1:41.03 | 111525 | 119102 13 | 26:28.03 | 0:44.53 | 119103 | 122455 14 | 27:12.56 | 1:02.43 | 122456 | 127148 15 | 28:15.24 | 5:05.15 | 127149 | 150038 16 | 33:20.39 | 0:40.25 | 150039 | 153063 17 | 34:00.64 | 1:32.49 | 153064 | 160012 18 | 35:33.38 | 0:40.09 | 160013 | 163021 19 | 36:13.47 | 5:40.05 | 163022 | 188526 20 | 41:53.52 | 1:46.37 | 188527 | 196513 21 | 43:40.14 | 3:55.47 | 196514 | 214185

Характеристики диапазона извлечения и сообщения об ошибках

Выбранный диапазон

Имя файла C:\Users\admin\Documents\Unknown Artist - Unknown Title.wav

Пиковый уровень 100.0 % Качество диапазона 99.9 % CRC копии 249103BD Копирование... OK

Ошибок не произошло

Конец отчёта
REM GENRE SoundtrackREM DATE 1988REM DISCID 180B2715REM COMMENT "ExactAudioCopy v0.99pb5"TITLE "Mio My Mio"FILE "Mio My Mio.flac" WAVE TRACK 01 AUDIO TITLE "Mio Overture" PERFORMER "Anders Eljas" INDEX 01 00:00:00 TRACK 02 AUDIO TITLE "Kite-Flying" PERFORMER "Anders Eljas" INDEX 01 03:21:01 TRACK 03 AUDIO TITLE "Aunt Edna's Waiting At Home" PERFORMER "Anders Eljas" INDEX 01 04:46:52 TRACK 04 AUDIO TITLE "Bosse Runs Away" PERFORMER "Anders Eljas" INDEX 01 05:35:34 TRACK 05 AUDIO TITLE "The Journey To The Land Of Faraway" PERFORMER "Anders Eljas, Benny Andersson" INDEX 01 09:33:32 TRACK 06 AUDIO TITLE "Mio My Mio #1" PERFORMER "Anders Eljas" INDEX 01 14:45:58 TRACK 07 AUDIO TITLE "The Shepherd's Flute #1" PERFORMER "Benny Andersson" INDEX 01 16:17:13 TRACK 08 AUDIO TITLE "Kato's Icy Wind" PERFORMER "Anders Eljas" INDEX 01 16:49:01 TRACK 09 AUDIO TITLE "The Bridge Of The Morning Light" PERFORMER "Anders Eljas" INDEX 01 19:03:66 TRACK 10 AUDIO TITLE "The Land Outside" PERFORMER "Anders Eljas" INDEX 01 20:54:19 TRACK 11 AUDIO TITLE "Miramis Is Captured" PERFORMER "Anders Eljas" INDEX 01 22:48:66 TRACK 12 AUDIO TITLE "The Hunt For Mio And Jum-Jum" PERFORMER "Anders Eljas" INDEX 01 24:47:00 TRACK 13 AUDIO TITLE "The Shepherd's Flute #2" PERFORMER "Benny Andersson" INDEX 01 26:28:03 TRACK 14 AUDIO TITLE "The Sword" PERFORMER "Anders Eljas" INDEX 01 27:12:56 TRACK 15 AUDIO TITLE "Inside Kato's Castle" PERFORMER "Anders Eljas" INDEX 01 28:15:24 TRACK 16 AUDIO TITLE "Prisoners Of Kato" PERFORMER "Anders Eljas" INDEX 01 33:20:39 TRACK 17 AUDIO TITLE "To The Dungeon" PERFORMER "Anders Eljas" INDEX 01 34:00:64 TRACK 18 AUDIO TITLE "Return Of The Sword" PERFORMER "Anders Eljas" INDEX 01 35:33:38 TRACK 19 AUDIO TITLE "The Final Battle" PERFORMER "Anders Eljas" INDEX 01 36:13:47 TRACK 20 AUDIO TITLE "The Reunion" PERFORMER "Anders Eljas, Benny Andersson" INDEX 01 41:53:52 TRACK 21 AUDIO TITLE "Mio My Mio" PERFORMER "Gemini" INDEX 01 43:40:14
auCDtect: CD records authenticity detector, version 0.8.2Copyright (c) 2004 Oleg Berngardt. All rights reserved.Copyright (c) 2004 Alexander Djourik. All rights reserved.------------------------------------------------------------Processing file: [Mio My Mio.wav]Detected average hi-boundary frequency: 2.028295e+004 HzDetected average lo-boundary frequency: 1.435863e+004 HzDetected average hi-cut frequency: 2.119181e+004 HzDetected average lo-cut frequency: 1.634607e+004 HzMaximum probablis boundary frequency: 2.189100e+004 HzCoefficient of nonlinearity of a phase: 9.967263e-001First order smothness: 4.562248e-001Second order smothness: 8.531612e-001

------------------------------------------------------------This track looks like CDDA with probability 100%
Доп. информация: Данный рип выполнен по моей просьбе пользователем Kroshe4ka86 с копии оригинального диска, я лишь расставил теги и выполнил оформление темы. Доступа к самому оригинальному диску нет. Тем не менее, в связи с крайней редкостью данного диска, на данный момент это лучшее, что у нас есть.

Все источники информации о данном альбоме утверждают, что в нём 20 треков, однако в данном релизе 21 трек (имеется дополнительный трек между 5 и 6 треками), также отличается время каждого трека. По всей видимости, было и другое издание альбома, потому что на YouTube имеются видео также с 21 треком из данного альбома.

Трекер:  [ 12-Июн-2013 16:35 ]

  

Скачать .torrent

Размер .torrent файла 18 KB


Размер: 227 MB
Хэш (hash) релиза: 5db5b81110147ae86e78a9e1ce3ff216e7d8c091

bot

Топик был перенесен в форум Саундтреки к фильмам и мультфильмам (lossless)

Перенес Galfimbul

Хотите добавить комментарий к записи скачать торрент Мио, мой Мио Mio min Mio

!Обратная связь