Скачать через торрент музыку Алексей Рыбников - Музыка кино бесплатно без регистрации torrent

Если у вас наблюдаются проблемы со скриншотами, переходом по ссылками, скачиванием торрентов - проблемы в блокировщике рекламы AdBlock. #хорошегоДня!


Статистика раздачи
Размер:  248 MB   |    Зарегистрирован:  4 года 3 месяца   |    .torrent скачан:  26 раз   |   
Раздают:  1  
   
Загрузка...
 
Автор Сообщение

Galfimbul

avatar Galfimbul


Алексей Рыбников - Музыка кино (Диск 2)

Жанр: Score
Год выпуска диска: 2005
Страна-производитель диска: Россия
Издатель (лейбл): Студия Алексея Рыбникова
Номер по каталогу: AR 008
Аудиокодек: FLAC (*.flac)
Тип рипа: image+.cue
Битрейт аудио: lossless
Продолжительность: 40:34
Источник: собственный рип
Наличие сканов в содержимом раздачи: да
Треклист:
01. Рома и Катя (Вам и не снилось)
02. Последняя поэма (Вам и не снилось)
03. Новый дом (Вам и не снилось)
04. Тема детей (Сказка о звёздном мальчике)
05. Встреча (Сказка о звёздном мальчике)
06. Цветы (Через тернии к звёздам)
07. Торжество разума (Через тернии к звёздам)
08. Картины (Серафим Полубес и другие жители Земли)
09. Тема мечты (Полёт с космонавтом)
10. Признание (Карантин)
11. Солнечный день (Мушкетёры из 4 "Б")
12. Утро в джунглях (Паучок Ананси)
13. Рождение Буратино (Приключения Буратино)
14. Драка Кота и Лисы (Приключения Буратино)
15. Тема театра Карабаса-Барабаса (Приключения Буратино)
16. Дождь за окном (Утоли мои печали)
Exact Audio Copy V1.0 beta 3 from 29. August 2011

Отчёт EAC об извлечении, выполненном 19. июня 2012, 3:52

Алексей Рыбников / Музыка Кино (диск 2)

Дисковод: Optiarc DVD RW AD-7280S Adapter: 1 ID: 0

Режим чтения : ДостоверностьИспользование точного потока : ДаОтключение кэша аудио : ДаИспользование указателей C2 : Нет

Коррекция смещения при чтении : 48Способность читать области Lead-in и Lead-out : НетЗаполнение пропущенных сэмплов тишиной : ДаУдаление блоков с тишиной в начале и конце : НетПри вычислениях CRC использовались нулевые сэмплы : ДаИнтерфейс : Встроенный Win32-интерфейс для Win NT/2000

Выходной формат : Пользовательский кодировщикВыбранный битрейт : 128 kBit/sКачество : ВысокийДобавление ID3-тега : НетУтилита сжатия : C:\Program Files\Exact Audio Copy\FLAC\FLAC.EXEДополнительные параметры : -V -8 -T "Date=%year%" -T "Genre=%genre%" %source%

TOC извлечённого CD

Трек | Старт | Длительность | Начальный сектор | Конечный сектор --------------------------------------------------------------------- 1 | 0:00.00 | 1:53.14 | 0 | 8488 2 | 1:53.14 | 2:44.29 | 8489 | 20817 3 | 4:37.43 | 0:47.43 | 20818 | 24385 4 | 5:25.11 | 2:11.00 | 24386 | 34210 5 | 7:36.11 | 3:45.38 | 34211 | 51123 6 | 11:21.49 | 1:31.46 | 51124 | 57994 7 | 12:53.20 | 2:00.62 | 57995 | 67056 8 | 14:54.07 | 2:52.07 | 67057 | 79963 9 | 17:46.14 | 3:24.30 | 79964 | 95293 10 | 21:10.44 | 2:46.42 | 95294 | 107785 11 | 23:57.11 | 3:02.39 | 107786 | 121474 12 | 26:59.50 | 1:03.00 | 121475 | 126199 13 | 28:02.50 | 1:35.50 | 126200 | 133374 14 | 29:38.25 | 1:19.53 | 133375 | 139352 15 | 30:58.03 | 2:17.47 | 139353 | 149674 16 | 33:15.50 | 7:18.59 | 149675 | 182583

Характеристики диапазона извлечения и сообщения об ошибках

Выбранный диапазон

Имя файла C:\Documents and Settings\Пользователь\Мои документы\Раздачи на torrents.ru\Алексей Рыбников - Музыка Кино (диск 2).wav

Пиковый уровень 92.2 % Скорость извлечения 3.7 X Качество диапазона 100.0 % CRC теста 845CEBC6 CRC копии 845CEBC6 Копирование... OK

Ошибок не произошло

AccurateRip: сводка

Трек 1 : извлечено точно (доверие 3) [A45B6E69] (AR v1)Трек 2 : извлечено точно (доверие 3) [659B6D32] (AR v1)Трек 3 : извлечено точно (доверие 3) [DD1F149A] (AR v1)Трек 4 : извлечено точно (доверие 3) [9BCC76B1] (AR v1)Трек 5 : извлечено точно (доверие 3) [DAA0BC61] (AR v1)Трек 6 : извлечено точно (доверие 3) [0E69AD44] (AR v1)Трек 7 : извлечено точно (доверие 3) [E92B9862] (AR v1)Трек 8 : извлечено точно (доверие 3) [EBFBCAD0] (AR v1)Трек 9 : извлечено точно (доверие 3) [70691ED1] (AR v1)Трек 10 : извлечено точно (доверие 3) [11A93024] (AR v1)Трек 11 : извлечено точно (доверие 3) [EF9C4FB8] (AR v1)Трек 12 : извлечено точно (доверие 3) [AC2A9427] (AR v1)Трек 13 : извлечено точно (доверие 3) [8EA692C3] (AR v1)Трек 14 : извлечено точно (доверие 3) [4A5FAC82] (AR v1)Трек 15 : извлечено точно (доверие 3) [CC278D85] (AR v1)Трек 16 : извлечено точно (доверие 3) [6576E416] (AR v1)

Все треки извлечены точно

Конец отчёта

==== Контрольная сумма отчёта 7D9F71C7A8C08FD321A43503D8641DE4A8DC24597D8B082170476D98B64ECA27 ====
REM GENRE SoundtrackREM DATE 2005REM DISCID F5098210REM COMMENT "ExactAudioCopy v1.0b3"PERFORMER "Алексей Рыбников"TITLE "Музыка Кино (диск 2)"FILE "Алексей Рыбников - Музыка Кино (диск 2).flac" WAVE TRACK 01 AUDIO TITLE "Рома и Катя ('Вам И Не Снилось')" PERFORMER "Алексей Рыбников" INDEX 01 00:00:00 TRACK 02 AUDIO TITLE "Последняя Поэма ('Вам И Не Снилось')" PERFORMER "Алексей Рыбников" INDEX 00 01:51:14 INDEX 01 01:53:14 TRACK 03 AUDIO TITLE "Новый Дом ('Вам И Не Снилось')" PERFORMER "Алексей Рыбников" INDEX 00 04:35:43 INDEX 01 04:37:43 TRACK 04 AUDIO TITLE "Тема Детей ('Сказка О Звездном Мальчике')" PERFORMER "Алексей Рыбников" INDEX 00 05:23:11 INDEX 01 05:25:11 TRACK 05 AUDIO TITLE "Встреча ('Сказка О Звездном Мальчике')" PERFORMER "Алексей Рыбников" INDEX 00 07:34:11 INDEX 01 07:36:11 TRACK 06 AUDIO TITLE "Цветы ('Через Тернии К Звездам')" PERFORMER "Алексей Рыбников" INDEX 00 11:19:49 INDEX 01 11:21:49 TRACK 07 AUDIO TITLE "Торжество Разума ('Через Тернии К Звездам')" PERFORMER "Алексей Рыбников" INDEX 00 12:51:20 INDEX 01 12:53:20 TRACK 08 AUDIO TITLE "Картины ('Серафим Полубес И Другие Жители Земли')" PERFORMER "Алексей Рыбников" INDEX 00 14:52:07 INDEX 01 14:54:07 TRACK 09 AUDIO TITLE "Тема Мечты ('Полет С Космонавтом')" PERFORMER "Алексей Рыбников" INDEX 00 17:44:14 INDEX 01 17:46:14 TRACK 10 AUDIO TITLE "Признание ('Карантин')" PERFORMER "Алексей Рыбников" INDEX 00 21:08:44 INDEX 01 21:10:44 TRACK 11 AUDIO TITLE "Солнечный День ('Мушкетеры из 4б')" PERFORMER "Алексей Рыбников" INDEX 00 23:55:11 INDEX 01 23:57:11 TRACK 12 AUDIO TITLE "Утро В Джунглях ('Паучок Ананси')" PERFORMER "Алексей Рыбников" INDEX 00 26:57:50 INDEX 01 26:59:50 TRACK 13 AUDIO TITLE "Рождение Буратино ('Приключения Буратино')" PERFORMER "Алексей Рыбников" INDEX 00 28:00:50 INDEX 01 28:02:50 TRACK 14 AUDIO TITLE "Драка Кота И Лисы ('Приключения Буратино')" PERFORMER "Алексей Рыбников" INDEX 00 29:36:25 INDEX 01 29:38:25 TRACK 15 AUDIO TITLE "Тема Театра Карабаса-Барабаса ('Приключения Буратино')" PERFORMER "Алексей Рыбников" INDEX 00 30:56:03 INDEX 01 30:58:03 TRACK 16 AUDIO TITLE "Дождь За Окном ('Толи Мои Печали')" PERFORMER "Алексей Рыбников" INDEX 00 33:13:50 INDEX 01 33:15:50


Трекер:  [ 12-Июн-2013 16:35 ]

  

Скачать .torrent

Размер .torrent файла 20 KB


Размер: 248 MB
Хэш (hash) релиза: 3bba6a48d5ab06609a2a6ded62e3ec4046fdf78a

bot

Топик был перенесен в форум Саундтреки к фильмам и мультфильмам (lossless)

Перенес Galfimbul

Хотите добавить комментарий к записи скачать торрент Алексей Рыбников - Музыка кино

!Обратная связь