Скачать через торрент музыку Падал прошлогодний снег бесплатно без регистрации torrent

Если у вас наблюдаются проблемы со скриншотами, переходом по ссылками, скачиванием торрентов - проблемы в блокировщике рекламы AdBlock. #хорошегоДня!


Статистика раздачи
Размер:  375 MB   |    Зарегистрирован:  4 года 3 месяца   |    .torrent скачан:  30 раз   |   
Раздают:  1  
   
Загрузка...
 
Автор Сообщение

Galfimbul

avatar Galfimbul


Григорий Гладков - Падал прошлогодний снег

Жанр: Score
Год выпуска диска: 2011
Год выпуска фильма: 1983
Страна-производитель диска: Россия
Издатель (лейбл): Кирилл и Мефодий (лицензионный диск)
Аудиокодек: FLAC (*.flac)
Тип рипа: tracks+.cue
Битрейт аудио: lossless
Продолжительность: 59:25
Источник: диск из моей коллекции
Наличие сканов в содержимом раздачи: да

Треклист:
01. Падал прошлогодний снег (Сказка) - 39:26
02. Мужик 1 - 1:17
03. Мужик мечтает - 2:34
04. В избушке - 2:33
05. Лирическая - 1:27
06. Мужик 2 - 0:47
07. Мужик 3 - 1:05
08. Концы в воду - 2:13
09. Спуск с горы - 1:36
10. Финал - 2:09
11. Финал (Ремикс) - 4:18
Exact Audio Copy V1.0 beta 1 from 15. November 2010

EAC extraction logfile from 11. July 2012, 0:08

Григорий Гладков / Падал прошлогодний снег

Used drive : HL-DT-STDVDRAM GH20NS10 Adapter: 5 ID: 0

Read mode : SecureUtilize accurate stream : YesDefeat audio cache : YesMake use of C2 pointers : No

Read offset correction : 667Overread into Lead-In and Lead-Out : NoFill up missing offset samples with silence : YesDelete leading and trailing silent blocks : NoNull samples used in CRC calculations : YesUsed interface : Native Win32 interface for Win NT & 2000Gap handling : Appended to previous track

Used output format : User Defined EncoderSelected bitrate : 768 kBit/sQuality : HighAdd ID3 tag : NoCommand line compressor : C:\Program Files\Exact Audio Copy\Flac\flac.exeAdditional command line options : -8 -V -T "ARTIST=%a" -T "TITLE=%t" -T "ALBUM=%g" -T "DATE=%y" -T "TRACKNUMBER=%n" -T "TOTALTRACKS=%x" -T "GENRE=%m" -T "ALBUMARTIST=%v" -T "ALBUM ARTIST=%v" -T "COMMENT=EAC Secure Mode, Test & Copy, AccurateRip, FLAC -8" %s

TOC of the extracted CD

Track | Start | Length | Start sector | End sector --------------------------------------------------------- 1 | 0:00.00 | 39:26.39 | 0 | 177488 2 | 39:26.39 | 1:17.52 | 177489 | 183315 3 | 40:44.16 | 2:34.68 | 183316 | 194933 4 | 43:19.09 | 2:33.73 | 194934 | 206481 5 | 45:53.07 | 1:27.65 | 206482 | 213071 6 | 47:20.72 | 0:47.22 | 213072 | 216618 7 | 48:08.19 | 1:05.40 | 216619 | 221533 8 | 49:13.59 | 2:13.01 | 221534 | 231509 9 | 51:26.60 | 1:36.72 | 231510 | 238781 10 | 53:03.57 | 2:09.68 | 238782 | 248524 11 | 55:13.50 | 4:18.51 | 248525 | 267925

Track 1

Filename F:\audio\01 - Падал прошлогодний снег - Сказка.wav

Pre-gap length 0:00:02.00

Peak level 89.1 % Extraction speed 7.2 X Track quality 100.0 % Test CRC CF76BA24 Copy CRC CF76BA24 Track not present in AccurateRip database Copy OK

Track 2

Filename F:\audio\02 - Мужик 1.wav

Pre-gap length 0:00:02.00

Peak level 89.1 % Extraction speed 3.8 X Track quality 99.8 % Test CRC 2D20A780 Copy CRC 2D20A780 Track not present in AccurateRip database Copy OK

Track 3

Filename F:\audio\03 - Мужик мечтает.wav

Pre-gap length 0:00:02.00

Peak level 89.1 % Extraction speed 7.0 X Track quality 100.0 % Test CRC 03C2C79F Copy CRC 03C2C79F Track not present in AccurateRip database Copy OK

Track 4

Filename F:\audio\04 - В избушке.wav

Pre-gap length 0:00:02.00

Peak level 89.1 % Extraction speed 7.2 X Track quality 100.0 % Test CRC 172A7257 Copy CRC 172A7257 Track not present in AccurateRip database Copy OK

Track 5

Filename F:\audio\05 - Лирическая.wav

Pre-gap length 0:00:02.00

Peak level 89.1 % Extraction speed 6.2 X Track quality 100.0 % Test CRC 1C8E0D3C Copy CRC 1C8E0D3C Track not present in AccurateRip database Copy OK

Track 6

Filename F:\audio\06 - Мужик 2.wav

Pre-gap length 0:00:02.00

Peak level 89.1 % Extraction speed 5.2 X Track quality 100.0 % Test CRC 13B02EF8 Copy CRC 13B02EF8 Track not present in AccurateRip database Copy OK

Track 7

Filename F:\audio\07 - Мужик 3.wav

Pre-gap length 0:00:02.00

Peak level 89.1 % Extraction speed 6.0 X Track quality 100.0 % Test CRC 3EAECFEA Copy CRC 3EAECFEA Track not present in AccurateRip database Copy OK

Track 8

Filename F:\audio\08 - Концы в воду.wav

Pre-gap length 0:00:02.00

Peak level 89.1 % Extraction speed 7.2 X Track quality 100.0 % Test CRC 4B8C07C6 Copy CRC 4B8C07C6 Track not present in AccurateRip database Copy OK

Track 9

Filename F:\audio\09 - Спуск с горы.wav

Pre-gap length 0:00:02.00

Peak level 89.1 % Extraction speed 4.8 X Track quality 99.8 % Test CRC D848D756 Copy CRC D848D756 Track not present in AccurateRip database Copy OK

Track 10

Filename F:\audio\10 - Финал.wav

Pre-gap length 0:00:02.00

Peak level 89.1 % Extraction speed 7.7 X Track quality 100.0 % Test CRC A4CDC566 Copy CRC A4CDC566 Track not present in AccurateRip database Copy OK

Track 11

Filename F:\audio\11 - Финал (Ремикс).wav

Pre-gap length 0:00:02.00

Peak level 89.1 % Extraction speed 7.5 X Track quality 99.9 % Test CRC 41346D47 Copy CRC 41346D47 Track not present in AccurateRip database Copy OK

None of the tracks are present in the AccurateRip database

No errors occurred

End of status report

==== Log checksum C2D02F54DF4532F68AC26AEF317B9BD9BC6931042AF3D29D7C71AB1631C015D2 ====
REM GENRE SoundtrackREM DATE 2011REM DISCID A90DF40BREM COMMENT "ExactAudioCopy v1.0b1"PERFORMER "Григорий Гладков"TITLE "Падал прошлогодний снег"FILE "01 - Падал прошлогодний снег - Сказка.wav" WAVE TRACK 01 AUDIO TITLE "Падал прошлогодний снег - Сказка" PERFORMER "Григорий Гладков" FLAGS DCP INDEX 01 00:00:00 TRACK 02 AUDIO TITLE "Мужик 1" PERFORMER "Григорий Гладков" FLAGS DCP INDEX 00 39:24:39FILE "02 - Мужик 1.wav" WAVE INDEX 01 00:00:00 TRACK 03 AUDIO TITLE "Мужик мечтает" PERFORMER "Григорий Гладков" FLAGS DCP INDEX 00 01:15:52FILE "03 - Мужик мечтает.wav" WAVE INDEX 01 00:00:00 TRACK 04 AUDIO TITLE "В избушке" PERFORMER "Григорий Гладков" FLAGS DCP INDEX 00 02:32:68FILE "04 - В избушке.wav" WAVE INDEX 01 00:00:00 TRACK 05 AUDIO TITLE "Лирическая" PERFORMER "Григорий Гладков" FLAGS DCP INDEX 00 02:31:73FILE "05 - Лирическая.wav" WAVE INDEX 01 00:00:00 TRACK 06 AUDIO TITLE "Мужик 2" PERFORMER "Григорий Гладков" FLAGS DCP INDEX 00 01:25:65FILE "06 - Мужик 2.wav" WAVE INDEX 01 00:00:00 TRACK 07 AUDIO TITLE "Мужик 3" PERFORMER "Григорий Гладков" FLAGS DCP INDEX 00 00:45:22FILE "07 - Мужик 3.wav" WAVE INDEX 01 00:00:00 TRACK 08 AUDIO TITLE "Концы в воду" PERFORMER "Григорий Гладков" FLAGS DCP INDEX 00 01:03:40FILE "08 - Концы в воду.wav" WAVE INDEX 01 00:00:00 TRACK 09 AUDIO TITLE "Спуск с горы" PERFORMER "Григорий Гладков" FLAGS DCP INDEX 00 02:11:01FILE "09 - Спуск с горы.wav" WAVE INDEX 01 00:00:00 TRACK 10 AUDIO TITLE "Финал" PERFORMER "Григорий Гладков" FLAGS DCP INDEX 00 01:34:72FILE "10 - Финал.wav" WAVE INDEX 01 00:00:00 TRACK 11 AUDIO TITLE "Финал (Ремикс)" PERFORMER "Григорий Гладков" FLAGS DCP INDEX 00 02:07:68FILE "11 - Финал (Ремикс).wav" WAVE INDEX 01 00:00:00
Падал прошлогодний снег - так называется мультфильм, который был сделан из пластилина. Его режиссёром был Александр Татарский. Художник Игорь Ковалёв.
Это Новогодняя Сказка про мужика недотёпу, который ищет ёлку и не находит её. Сказка весёлая и очень остроумная.
Историю эту Александр Татарский сочинял вместе с замечательным детским писателем Сергеем Ивановым. Я сделал из этой сказки радиоспектакль и получился прикольный диск под названием "Падал прошлогодний снег".
А как бонус, здесь добавлен саундтрек музыки из мультфильма. Главным инструментом в оркестре является самодельная дудка под названием "казу". Этот инструмент используется в стилях "диксиленд" и "кантри", ну а мы его вставили в наш мультфильм.
Многие фразы из этого мультика стали крылатыми: "Маловато будет", "Уж послала жена, так послала", "А я и в цари записаться могу", "Эх, пианино, пианино", "У Вас все дома" и так далее.
Очень интересная история получилась и я счастлив, что написал к ней музыку - композитор Григорий Гладков.
По возможности купите этот диск, музыка того стоит!

Трекер:  [ 12-Июн-2013 16:35 ]

  

Скачать .torrent

Размер .torrent файла 16 KB


Размер: 375 MB
Хэш (hash) релиза: 26ab62b3e40d25a4f8435b26f8b0edd2c1e40b5a

Торренты, похожие на Падал прошлогодний снег скачать торрент

Форум Название Автор Размер S L Добавлен
Саундтреки к фильмам и мультфильмам (mp3) ·· (Score) Падал прошлогодний снег (Григорий Гладков) - 2011, MP3, 320 kbps Galfimbul 150867436144 MB 0 0 1375822596

23:56

6-Авг-13

bot

Топик был перенесен в форум Саундтреки к фильмам и мультфильмам (lossless)

Перенес Galfimbul

Хотите добавить комментарий к записи скачать торрент Падал прошлогодний снег

!Обратная связь