Скачать через торрент музыку Солярис бесплатно без регистрации torrent

Если у вас наблюдаются проблемы со скриншотами, переходом по ссылками, скачиванием торрентов - проблемы в блокировщике рекламы AdBlock. #хорошегоДня!


Статистика раздачи
Размер:  186 MB   |    Зарегистрирован:  4 года 3 месяца   |    .torrent скачан:  32 раза   |   
Раздают:  1  
   
Загрузка...
 
Автор Сообщение

Galfimbul

avatar Galfimbul


Солярис

Название альбома: Andrey Tarkovsky vol.3. - Solaris
Жанр: Score
Композитор: Эдуард Артемьев
Год выпуска диска: 1995
Год выпуска фильма: 1972
Страна-производитель диска: Япония
Издатель (лейбл): Toei Music
Номер по каталогу: TMP2003
Аудиокодек: FLAC (*.flac)
Тип рипа: tracks+.cue
Битрейт аудио: lossless
Продолжительность: 00:51:10
Источник: собственный рип
Наличие сканов в содержимом раздачи: да
Треклист:
01 - Part I. Bach (02:49)
02 - Part II (02:32)
03 - Part III (02:22)
04 - Part IV (03:13)
05 - Part V (02:27)
06 - Part VI (07:18)
07 - Part VII (03:55)
08 - Part VIII. Bach (rem.) (02:56)
09 - Part IX (01:26)
10 - Part X (00:38)
11 - Part XI (02:09)
12 - Part XII. Bach (rem. 2) (01:42)
13 - Part XIII (04:44)
14 - Part XIV (00:44)
15 - Part XV (04:36)
16 - Part XVI. Bach (rem. 3) (06:19)
17 - Part XVII. Bach 2 (01:20)
Exact Audio Copy V1.0 beta 3 from 29. August 2011

Отчёт EAC об извлечении, выполненном 12. октября 2012, 21:22

- / Andrey Tarkovsky vol.3. - Solaris

Дисковод: HL-DT-STDVDRAM GT32N Adapter: 0 ID: 0

Режим чтения : ДостоверностьИспользование точного потока : ДаОтключение кэша аудио : ДаИспользование указателей C2 : Нет

Коррекция смещения при чтении : 103Способность читать области Lead-in и Lead-out : НетЗаполнение пропущенных сэмплов тишиной : ДаУдаление блоков с тишиной в начале и конце : НетПри вычислениях CRC использовались нулевые сэмплы : ДаИнтерфейс : Встроенный Win32-интерфейс для Win NT/2000Обработка зазоров : Добавлено к предыдущему треку

Выходной формат : Пользовательский кодировщикВыбранный битрейт : 1024 kBit/sКачество : ВысокийДобавление ID3-тега : НетУтилита сжатия : C:\Program Files (x86)\Exact Audio Copy\Flac\flac.exeДополнительные параметры : -V -8 -T "Genre=%genre%" -T "Artist=%artist%" -T "Title=%title%" -T "Album=%albumtitle%" -T "Date=%year%" -T "Tracknumber=%tracknr%" -T "Comment=%comment%" %source%

TOC извлечённого CD

Трек | Старт | Длительность | Начальный сектор | Конечный сектор --------------------------------------------------------------------- 1 | 0:00.00 | 2:49.00 | 0 | 12674 2 | 2:49.00 | 2:32.20 | 12675 | 24094 3 | 5:21.20 | 2:22.45 | 24095 | 34789 4 | 7:43.65 | 3:13.42 | 34790 | 49306 5 | 10:57.32 | 2:27.23 | 49307 | 60354 6 | 13:24.55 | 7:18.12 | 60355 | 93216 7 | 20:42.67 | 3:55.73 | 93217 | 110914 8 | 24:38.65 | 2:56.25 | 110915 | 124139 9 | 27:35.15 | 1:26.07 | 124140 | 130596 10 | 29:01.22 | 0:38.68 | 130597 | 133514 11 | 29:40.15 | 2:09.22 | 133515 | 143211 12 | 31:49.37 | 1:42.60 | 143212 | 150921 13 | 33:32.22 | 4:44.45 | 150922 | 172266 14 | 38:16.67 | 0:44.08 | 172267 | 175574 15 | 39:01.00 | 4:36.52 | 175575 | 196326 16 | 43:37.52 | 6:19.35 | 196327 | 224786 17 | 49:57.12 | 1:20.58 | 224787 | 230844

Трек 1

Имя файла C:\Users\Билайн\Desktop\Andrey Tarkovsky vol.3. - Solaris (1995)\01 - Part I. Bach.wav

Длина предзазора 0:00:02.00

Пиковый уровень 59.3 % Скорость извлечения 1.0 X Качество трека 99.9 % CRC теста 2B13A83A CRC копии 2B13A83A Точное извлечение (достоверность 2) [CF06AAFE] (AR v1) Копирование... OK

Трек 2

Имя файла C:\Users\Билайн\Desktop\Andrey Tarkovsky vol.3. - Solaris (1995)\02 - Part II.wav

Длина предзазора 0:00:02.73

Пиковый уровень 76.3 % Скорость извлечения 1.2 X Качество трека 100.0 % CRC теста 8DD1DFCE CRC копии 8DD1DFCE Точное извлечение (достоверность 2) [5C5994D3] (AR v1) Копирование... OK

Трек 3

Имя файла C:\Users\Билайн\Desktop\Andrey Tarkovsky vol.3. - Solaris (1995)\03 - Part III.wav

Длина предзазора 0:00:02.53

Пиковый уровень 25.3 % Скорость извлечения 1.3 X Качество трека 100.0 % CRC теста 3272AB10 CRC копии 3272AB10 Точное извлечение (достоверность 2) [302C261A] (AR v1) Копирование... OK

Трек 4

Имя файла C:\Users\Билайн\Desktop\Andrey Tarkovsky vol.3. - Solaris (1995)\04 - Part IV.wav

Длина предзазора 0:00:02.43

Пиковый уровень 60.1 % Скорость извлечения 1.2 X Качество трека 99.9 % CRC теста BD45171A CRC копии BD45171A Точное извлечение (достоверность 2) [7F81610E] (AR v1) Копирование... OK

Трек 5

Имя файла C:\Users\Билайн\Desktop\Andrey Tarkovsky vol.3. - Solaris (1995)\05 - Part V.wav

Длина предзазора 0:00:02.30

Пиковый уровень 35.2 % Скорость извлечения 1.4 X Качество трека 100.0 % CRC теста 4EC03480 CRC копии 4EC03480 Точное извлечение (достоверность 2) [CE5D15B0] (AR v1) Копирование... OK

Трек 6

Имя файла C:\Users\Билайн\Desktop\Andrey Tarkovsky vol.3. - Solaris (1995)\06 - Part VI.wav

Длина предзазора 0:00:02.05

Пиковый уровень 63.6 % Скорость извлечения 1.8 X Качество трека 100.0 % CRC теста 5362F446 CRC копии 5362F446 Точное извлечение (достоверность 2) [598AE5F0] (AR v1) Копирование... OK

Трек 7

Имя файла C:\Users\Билайн\Desktop\Andrey Tarkovsky vol.3. - Solaris (1995)\07 - Part VII.wav

Длина предзазора 0:00:03.25

Пиковый уровень 54.5 % Скорость извлечения 1.8 X Качество трека 100.0 % CRC теста C8AE8E6D CRC копии C8AE8E6D Точное извлечение (достоверность 2) [BE57F839] (AR v1) Копирование... OK

Трек 8

Имя файла C:\Users\Билайн\Desktop\Andrey Tarkovsky vol.3. - Solaris (1995)\08 - Part VIII. Bach (rem.).wav

Длина предзазора 0:00:02.38

Пиковый уровень 83.7 % Скорость извлечения 1.9 X Качество трека 100.0 % CRC теста 6EE1224B CRC копии 6EE1224B Точное извлечение (достоверность 2) [4043CD7D] (AR v1) Копирование... OK

Трек 9

Имя файла C:\Users\Билайн\Desktop\Andrey Tarkovsky vol.3. - Solaris (1995)\09 - Part IX.wav

Длина предзазора 0:00:02.40

Пиковый уровень 32.0 % Скорость извлечения 1.6 X Качество трека 100.0 % CRC теста B1E3FE12 CRC копии B1E3FE12 Точное извлечение (достоверность 2) [677B8F61] (AR v1) Копирование... OK

Трек 10

Имя файла C:\Users\Билайн\Desktop\Andrey Tarkovsky vol.3. - Solaris (1995)\10 - Part X.wav

Длина предзазора 0:00:03.20

Пиковый уровень 61.3 % Скорость извлечения 1.2 X Качество трека 100.0 % CRC теста 8C4AE514 CRC копии 8C4AE514 Точное извлечение (достоверность 2) [C5C2FA67] (AR v1) Копирование... OK

Трек 11

Имя файла C:\Users\Билайн\Desktop\Andrey Tarkovsky vol.3. - Solaris (1995)\11 - Part XI.wav

Длина предзазора 0:00:02.33

Пиковый уровень 89.4 % Скорость извлечения 1.8 X Качество трека 100.0 % CRC теста 4FB4BCA9 CRC копии 4FB4BCA9 Точное извлечение (достоверность 2) [BD44E93A] (AR v1) Копирование... OK

Трек 12

Имя файла C:\Users\Билайн\Desktop\Andrey Tarkovsky vol.3. - Solaris (1995)\12 - Part XII. Bach (rem. 2).wav

Длина предзазора 0:00:02.47

Пиковый уровень 95.9 % Скорость извлечения 1.7 X Качество трека 100.0 % CRC теста BB03D2FF CRC копии BB03D2FF Точное извлечение (достоверность 2) [EE08FC90] (AR v1) Копирование... OK

Трек 13

Имя файла C:\Users\Билайн\Desktop\Andrey Tarkovsky vol.3. - Solaris (1995)\13 - Part XIII.wav

Длина предзазора 0:00:02.47

Пиковый уровень 94.9 % Скорость извлечения 2.2 X Качество трека 100.0 % CRC теста B3AD61E3 CRC копии B3AD61E3 Точное извлечение (достоверность 2) [AE1BD8E2] (AR v1) Копирование... OK

Трек 14

Имя файла C:\Users\Билайн\Desktop\Andrey Tarkovsky vol.3. - Solaris (1995)\14 - Part XIV.wav

Длина предзазора 0:00:02.47

Пиковый уровень 26.1 % Скорость извлечения 1.3 X Качество трека 100.0 % CRC теста 47CF4E44 CRC копии 47CF4E44 Точное извлечение (достоверность 2) [23890631] (AR v1) Копирование... OK

Трек 15

Имя файла C:\Users\Билайн\Desktop\Andrey Tarkovsky vol.3. - Solaris (1995)\15 - Part XV.wav

Длина предзазора 0:00:02.43

Пиковый уровень 99.3 % Скорость извлечения 2.3 X Качество трека 100.0 % CRC теста A0A3334A CRC копии A0A3334A Точное извлечение (достоверность 2) [E58C9234] (AR v1) Копирование... OK

Трек 16

Имя файла C:\Users\Билайн\Desktop\Andrey Tarkovsky vol.3. - Solaris (1995)\16 - Part XVI. Bach (rem. 3).wav

Длина предзазора 0:00:02.45

Пиковый уровень 99.3 % Скорость извлечения 2.3 X Качество трека 99.9 % CRC теста 08008CF2 CRC копии 08008CF2 Точное извлечение (достоверность 2) [63456E2C] (AR v1) Копирование... OK

Трек 17

Имя файла C:\Users\Билайн\Desktop\Andrey Tarkovsky vol.3. - Solaris (1995)\17 - Part XVII. Bach 2.wav

Длина предзазора 0:00:02.35

Пиковый уровень 31.7 % Скорость извлечения 1.9 X Качество трека 100.0 % CRC теста E3ACE192 CRC копии E3ACE192 Точное извлечение (достоверность 2) [2642501C] (AR v1) Копирование... OK

Все треки извлечены точно

Ошибок не произошло

Конец отчёта

==== Контрольная сумма отчёта 658F0FEDAB93461A457AD1B2EF5EDFDD962E9314071AB2A9F87CFC8438D6E0C5 ====
REM GENRE SoundtrackREM DISCID F30C0511REM COMMENT "ExactAudioCopy v1.0b3"PERFORMER ""TITLE "Andrey Tarkovsky vol.3. - Solaris"FILE "01 - Part I. Bach.wav" WAVE TRACK 01 AUDIO TITLE "Part I. Bach" PERFORMER "" INDEX 01 00:00:00 TRACK 02 AUDIO TITLE "Part II" PERFORMER "" INDEX 00 02:46:02FILE "02 - Part II.wav" WAVE INDEX 01 00:00:00 TRACK 03 AUDIO TITLE "Part III" PERFORMER "" INDEX 00 02:29:42FILE "03 - Part III.wav" WAVE INDEX 01 00:00:00 TRACK 04 AUDIO TITLE "Part IV" PERFORMER "" INDEX 00 02:20:02FILE "04 - Part IV.wav" WAVE INDEX 01 00:00:00 TRACK 05 AUDIO TITLE "Part V" PERFORMER "" INDEX 00 03:11:12FILE "05 - Part V.wav" WAVE INDEX 01 00:00:00 TRACK 06 AUDIO TITLE "Part VI" PERFORMER "" INDEX 00 02:25:18FILE "06 - Part VI.wav" WAVE INDEX 01 00:00:00 TRACK 07 AUDIO TITLE "Part VII" PERFORMER "" INDEX 00 07:14:62FILE "07 - Part VII.wav" WAVE INDEX 01 00:00:00 TRACK 08 AUDIO TITLE "Part VIII. Bach (rem.)" PERFORMER "" INDEX 00 03:53:35FILE "08 - Part VIII. Bach (rem.).wav" WAVE INDEX 01 00:00:00 TRACK 09 AUDIO TITLE "Part IX" PERFORMER "" INDEX 00 02:53:60FILE "09 - Part IX.wav" WAVE INDEX 01 00:00:00 TRACK 10 AUDIO TITLE "Part X" PERFORMER "" INDEX 00 01:22:62FILE "10 - Part X.wav" WAVE INDEX 01 00:00:00 TRACK 11 AUDIO TITLE "Part XI" PERFORMER "" INDEX 00 00:36:35FILE "11 - Part XI.wav" WAVE INDEX 01 00:00:00 TRACK 12 AUDIO TITLE "Part XII. Bach (rem. 2)" PERFORMER "" INDEX 00 02:06:50FILE "12 - Part XII. Bach (rem. 2).wav" WAVE INDEX 01 00:00:00 TRACK 13 AUDIO TITLE "Part XIII" PERFORMER "" INDEX 00 01:40:13FILE "13 - Part XIII.wav" WAVE INDEX 01 00:00:00 TRACK 14 AUDIO TITLE "Part XIV" PERFORMER "" INDEX 00 04:41:73FILE "14 - Part XIV.wav" WAVE INDEX 01 00:00:00 TRACK 15 AUDIO TITLE "Part XV" PERFORMER "" INDEX 00 00:41:40FILE "15 - Part XV.wav" WAVE INDEX 01 00:00:00 TRACK 16 AUDIO TITLE "Part XVI. Bach (rem. 3)" PERFORMER "" INDEX 00 04:34:07FILE "16 - Part XVI. Bach (rem. 3).wav" WAVE INDEX 01 00:00:00 TRACK 17 AUDIO TITLE "Part XVII. Bach 2" PERFORMER "" INDEX 00 06:17:00FILE "17 - Part XVII. Bach 2.wav" WAVE INDEX 01 00:00:00


Трекер:  [ 12-Июн-2013 16:35 ]

  

Скачать .torrent

Размер .torrent файла 16 KB


Размер: 186 MB
Хэш (hash) релиза: 293c17ec245072a694359023ccb9b84a93c18f08

bot

Топик был перенесен в форум Саундтреки к фильмам и мультфильмам (lossless)

Перенес Galfimbul

Хотите добавить комментарий к записи скачать торрент Солярис

!Обратная связь