Скачать через торрент музыку Stephin Merritt бесплатно без регистрации torrent

Если у вас наблюдаются проблемы со скриншотами, переходом по ссылками, скачиванием торрентов - проблемы в блокировщике рекламы AdBlock. #хорошегоДня!


Статистика раздачи
Размер:  210 MB   |    Зарегистрирован:  6 лет 8 месяцев   |    .torrent скачан:  68 раз   |   
Раздают:  1  
   
Загрузка...
 
Автор Сообщение

Mos

avatar Mos


Stephin Merritt - Eban & Charley

Жанр: Score, Indie
Откуда: USA
Год выпуска диска: 2002
Производитель диска: Merge, USA
Аудио кодек: FLAC
Тип рипа: image+.cue
Битрейт аудио: lossless
Продолжительность: 36:58

Трэклист:
1. Mother (0:38)
2. Cricket Problem (2:18)
3. Some Summer Day (1:46)
4. O Tannenbaum (2:05)
5. Poppyland (3:19)
6. Drowned Sailors (1:37)
7. Maria Maria Maria (4:26)
8. Titles (1:28)
9. This Little Ukulele (1:21)
10. Tea Party (1:09)
11. Tiny Flying Player Pianos (1:14)
12. Mother Remembered (0:45)
13. Victorian Robotics (2:06)
14. Water Torture (3:02)
15. Greensleeves (2:46)
16. Stage Rains (6:58)

Доп. информация: Оригинальный саундтрек.
Диск из личной коллекции. Все сканы с CD приложены. Рецензии приветствуются.
 
Exact Audio Copy V0.99 prebeta 3 from 28. July 2007

EAC extraction logfile from 11. March 2010, 18:52

Stephin Merritt / Eban & Charley OST

Used drive : HL-DT-STDVDRAM GSA-T10N Adapter: 1 ID: 0

Read mode : SecureUtilize accurate stream : YesDefeat audio cache : YesMake use of C2 pointers : No

Read offset correction : 667Overread into Lead-In and Lead-Out : NoFill up missing offset samples with silence : YesDelete leading and trailing silent blocks : NoNull samples used in CRC calculations : YesUsed interface : Native Win32 interface for Win NT & 2000

Used output format : User Defined EncoderSelected bitrate : 128 kBit/sQuality : HighAdd ID3 tag : NoCommand line compressor : C:\Program Files\Exact Audio Copy\Flac\flac.exeAdditional command line options : -8 -V %s

TOC of the extracted CD

Track | Start | Length | Start sector | End sector --------------------------------------------------------- 1 | 0:00.00 | 0:38.67 | 0 | 2916 2 | 0:38.67 | 2:18.13 | 2917 | 13279 3 | 2:57.05 | 1:46.37 | 13280 | 21266 4 | 4:43.42 | 2:05.19 | 21267 | 30660 5 | 6:48.61 | 3:19.65 | 30661 | 45650 6 | 10:08.51 | 1:37.74 | 45651 | 52999 7 | 11:46.50 | 4:26.44 | 53000 | 72993 8 | 16:13.19 | 1:28.53 | 72994 | 79646 9 | 17:41.72 | 1:21.69 | 79647 | 85790 10 | 19:03.66 | 1:09.38 | 85791 | 91003 11 | 20:13.29 | 1:14.62 | 91004 | 96615 12 | 21:28.16 | 0:45.74 | 96616 | 100064 13 | 22:14.15 | 2:06.54 | 100065 | 109568 14 | 24:20.69 | 3:02.29 | 109569 | 123247 15 | 27:23.23 | 2:46.39 | 123248 | 135736 16 | 30:09.62 | 6:58.34 | 135737 | 167120

Range status and errors

Selected range

Filename H:\MUSICCC\H раздачи музыки на torrents\Merritt, Stephin\Stephin Merritt\Eban & Charley OST (2002)\Stephin Merritt - Eban & Charley OST.wav

Peak level 98.8 % Range quality 100.0 % Test CRC 05C4622B Copy CRC 05C4622B Copy OK

No errors occurred

AccurateRip summary

Track 1 accurately ripped (confidence 7) [A60A31D0]Track 2 accurately ripped (confidence 7) [B9ED658D]Track 3 accurately ripped (confidence 7) [B3185F38]Track 4 accurately ripped (confidence 7) [03E83259]Track 5 accurately ripped (confidence 7) [D3A24A4F]Track 6 accurately ripped (confidence 7) [AE3BFB08]Track 7 accurately ripped (confidence 7) [601F0E54]Track 8 accurately ripped (confidence 7) [0062F83B]Track 9 accurately ripped (confidence 7) [FE0C4F67]Track 10 accurately ripped (confidence 7) [24622015]Track 11 accurately ripped (confidence 7) [65AA3C93]Track 12 accurately ripped (confidence 7) [23E9385E]Track 13 accurately ripped (confidence 7) [5E83183B]Track 14 accurately ripped (confidence 7) [64F5495C]Track 15 accurately ripped (confidence 7) [D2E203EB]Track 16 accurately ripped (confidence 7) [E842CF7A]

All tracks accurately ripped

End of status report


Трекер:  [ 26-Дек-2010 14:00 ]

  

Скачать .torrent

Размер .torrent файла 17 KB


Размер: 210 MB
Хэш (hash) релиза: 16f7301cf6791938fa2e538cc11c27498001686d

Еще никто не оставлял запись к записи скачать торрент Stephin Merritt . Будь первым!

!Обратная связь