Скачать через торрент музыку Basil Poledouris - Conan the Barbarian Конан-Варвар - 1982, APE бесплатно без регистрации torrent

Если у вас наблюдаются проблемы со скриншотами, переходом по ссылками, скачиванием торрентов - проблемы в блокировщике рекламы AdBlock. #хорошегоДня!


Статистика раздачи
Размер:  238 MB   |    Зарегистрирован:  6 лет 8 месяцев   |    .torrent скачан:  63 раза   |   
Раздают:  1  
   
Загрузка...
 
Автор Сообщение

Mos

avatar Mos


Basil Poledouris - Conan the Barbarian ("Конан-Варвар")

Жанр: Score
Год выпуска диска: 1982
Производитель диска: Германия
Аудио кодек: APE
Тип рипа: image+.cue
Битрейт аудио: lossless
Продолжительность: 49:07
Трэклист:
01-Prologue , Anvil Of Crom
02-Riddle Of Steel , Riders Of Doom
03-The Gift Of Fury
04-Column Of Sadness , Wheel Of Pain
05-Atlantean Sword
06-Theology , Civilization
07-Love Theme
08-The Search
09-The Orgy
10-The Funeral Pyre
11-Battle Of The Mounds Pt.1
12-Orphans Of Doom , The Awakening
 
Exact Audio Copy V0.99 prebeta 4 from 23. January 2008

Отчёт EAC об извлечении, выполненном 20. марта 2009, 19:42

Basil Poledouris / Conan the Barbarian

Дисковод: SONY DVD RW DW-Q28A Adapter: 0 ID: 0

Режим чтения : ДостоверностьИспользование точного потока : ДаОтключение кэша аудио : ДаИспользование указателей C2 : Нет

Коррекция смещения при чтении : 12Способность читать области Lead-in и Lead-out : НетЗаполнение пропущенных сэмплов тишиной : ДаУдаление блоков с тишиной в начале и конце : НетПри вычислениях CRC использовались нулевые сэмплы : НетИнтерфейс : Встроенный Win32-интерфейс для Win NT/2000

Выходной формат : Monkey's Audio Lossless Encoder v3.99 DLLФормат сэмплов : High Lossless Compression

TOC извлечённого CD

Трек | Старт | Длительность | Начальный сектор | Конечный сектор --------------------------------------------------------------------- 1 | 0:00.32 | 3:40.43 | 32 | 16574 2 | 3:41.00 | 5:40.15 | 16575 | 42089 3 | 9:21.15 | 3:51.32 | 42090 | 59446 4 | 13:12.47 | 4:10.40 | 59447 | 78236 5 | 17:23.12 | 3:52.05 | 78237 | 95641 6 | 21:15.17 | 3:15.35 | 95642 | 110301 7 | 24:30.52 | 2:11.30 | 110302 | 120156 8 | 26:42.07 | 3:10.35 | 120157 | 134441 9 | 29:52.42 | 4:16.10 | 134442 | 153651 10 | 34:08.52 | 4:30.53 | 153652 | 173954 11 | 38:39.30 | 4:55.05 | 173955 | 196084 12 | 43:34.35 | 5:32.47 | 196085 | 221031

Характеристики диапазона извлечения и сообщения об ошибках

Выбранный диапазон

Имя файла D:\МУЗЫКА\CONAN THE BARBARIAN OST\Basil Poledouris - Conan the Barbarian.ape

Пиковый уровень 94.8 % Качество диапазона 99.9 % CRC копии 1A4C3ED0 Копирование... OK

Ошибок не произошло

AccurateRip: сводка

Трек 1 точное извлечение (доверие 15) [AA576771]Трек 2 точное извлечение (доверие 14) [709EB8BC]Трек 3 точное извлечение (доверие 14) [664FF485]Трек 4 точное извлечение (доверие 14) [9DDC7DA2]Трек 5 точное извлечение (доверие 14) [512B859F]Трек 6 точное извлечение (доверие 14) [3041A47F]Трек 7 точное извлечение (доверие 14) [2F26A0CB]Трек 8 точное извлечение (доверие 14) [0774F90C]Трек 9 точное извлечение (доверие 14) [0DDB1FE8]Трек 10 точное извлечение (доверие 14) [50EFA2AA]Трек 11 точное извлечение (доверие 14) [B5777927]Трек 12 точное извлечение (доверие 14) [8C472787]

Все треки извлечены точно

Конец отчёта


Трекер:  [ 26-Дек-2010 14:16 ]

  

Скачать .torrent

Размер .torrent файла 19 KB


Размер: 238 MB
Хэш (hash) релиза: 92c24f8b70dfa4cd9ae3bb73bc708c049417da8e

Еще никто не оставлял запись к записи скачать торрент Basil Poledouris - Conan the Barbarian Конан-Варвар - 1982, APE . Будь первым!

!Обратная связь