Скачать через торрент музыку История игрушек: Большой побег Toy Story 3 - Songs and Story - 2010, FLAC бесплатно без регистрации torrent

Если у вас наблюдаются проблемы со скриншотами, переходом по ссылками, скачиванием торрентов - проблемы в блокировщике рекламы AdBlock. #хорошегоДня!


Статистика раздачи
Размер:  203 MB   |    Зарегистрирован:  6 лет 8 месяцев   |    .torrent скачан:  42 раза   |   
Раздают:  1  
   
Загрузка...
 
Автор Сообщение

Mos

avatar Mos


История игрушек: Большой побег / Toy Story 3
(Songs and Story)

Жанр: Soundtrack
Год выпуска диска: 2010
Страна-производитель диска: US
Издатель (лейбл): Walt Disney Records

Аудио кодек: FLAC (*.flac)
Тип рипа: tracks+.cue
Битрейт аудио: lossless
Продолжительность: 24:20

Наличие сканов в содержимом раздачи: да

Источник: what.cd

Треклист:
01. My Favourite Toys (1:54)
02. You've Got a Friend in Me (2:03)
03. To Infinity & Beyond (2:00)
04. I Think I'd be Perfect for You (2:18)
05. Toy Story 3 (Narration) (16:05)
 
Exact Audio Copy V0.99 prebeta 5 from 4. May 2009

EAC extraction logfile from 26. September 2010, 10:39

V.A. / Songs and Story: Toy Story 3

Used drive : HL-DT-STDVD-ROM GDR8162B Adapter: 0 ID: 0

Read mode : SecureUtilize accurate stream : YesDefeat audio cache : YesMake use of C2 pointers : No

Read offset correction : 102Overread into Lead-In and Lead-Out : NoFill up missing offset samples with silence : YesDelete leading and trailing silent blocks : NoNull samples used in CRC calculations : YesUsed interface : Native Win32 interface for Win NT & 2000Gap handling : Appended to previous track

Used output format : User Defined EncoderSelected bitrate : 192 kBit/sQuality : HighAdd ID3 tag : NoCommand line compressor : C:\Program Files (x86)\Exact Audio Copy\mareo6b2\mareo.exeAdditional command line options : mareo.ini %s %d "%a" "%g" "%t" "%n" %y "%m"

TOC of the extracted CD

Track | Start | Length | Start sector | End sector --------------------------------------------------------- 1 | 0:00.00 | 1:54.25 | 0 | 8574 2 | 1:54.25 | 2:03.01 | 8575 | 17800 3 | 3:57.26 | 2:00.32 | 17801 | 26832 4 | 5:57.58 | 2:17.56 | 26833 | 37163 5 | 8:15.39 | 16:05.30 | 37164 | 109568

Track 1

Filename D:\wave dumps\01 - V.A. - Fred LaBour , My Favourite Toys.wav

Pre-gap length 0:00:02.00

Peak level 90.6 % Track quality 100.0 % Test CRC C3734EA3 Copy CRC C3734EA3 Track not present in AccurateRip database Copy OK

Track 2

Filename D:\wave dumps\02 - V.A. - Randy Newman , You've Got a Friend in Me.wav

Peak level 98.8 % Track quality 100.0 % Test CRC 6041E8A3 Copy CRC 6041E8A3 Track not present in AccurateRip database Copy OK

Track 3

Filename D:\wave dumps\03 - V.A. - Fred LaBour , To Infinity & Beyond.wav

Peak level 98.8 % Track quality 100.0 % Test CRC F7DF65F5 Copy CRC F7DF65F5 Track not present in AccurateRip database Copy OK

Track 4

Filename D:\wave dumps\04 - V.A. - Gary Powell , I Think I'd be Perfect for You.wav

Peak level 98.8 % Track quality 100.0 % Test CRC 6583416E Copy CRC 6583416E Track not present in AccurateRip database Copy OK

Track 5

Filename D:\wave dumps\05 - V.A. - Rick Zieff , Toy Story 3 (Narration).wav

Peak level 98.8 % Track quality 100.0 % Test CRC A651C4C6 Copy CRC A651C4C6 Track not present in AccurateRip database Copy OK

None of the tracks are present in the AccurateRip database

No errors occurred

End of status report
 
REM GENRE SoundtrackREM DATE 2010REM DISCID 3D05B405REM COMMENT "ExactAudioCopy v0.99pb5"PERFORMER "Various"TITLE "Songs and Story: Toy Story 3"FILE "01 - Fred LaBour - My Favourite Toys.wav" WAVE TRACK 01 AUDIO TITLE "My Favourite Toys" PERFORMER "Fred LaBour" FLAGS DCP INDEX 01 00:00:00FILE "02 - Randy Newman - You've Got a Friend in Me.wav" WAVE TRACK 02 AUDIO TITLE "You've Got a Friend in Me" PERFORMER "Randy Newman" FLAGS DCP INDEX 01 00:00:00FILE "03 - Fred LaBour - To Infinity & Beyond.wav" WAVE TRACK 03 AUDIO TITLE "To Infinity & Beyond" PERFORMER "Fred LaBour" FLAGS DCP INDEX 01 00:00:00FILE "04 - Gary Powell - I Think I'd be Perfect for You.wav" WAVE TRACK 04 AUDIO TITLE "I Think I'd be Perfect for You" PERFORMER "Gary Powell" FLAGS DCP INDEX 01 00:00:00FILE "05 - Rick Zieff - Toy Story 3 (Narration).wav" WAVE TRACK 05 AUDIO TITLE "Toy Story 3 (Narration)" PERFORMER "Rick Zieff" FLAGS DCP INDEX 01 00:00:00


Трекер:  [ 26-Дек-2010 14:17 ]

  

Скачать .torrent

Размер .torrent файла 17 KB


Размер: 203 MB
Хэш (hash) релиза: 31ec5c3da3b11e726d8163379504b1751c79e888

Еще никто не оставлял запись к записи скачать торрент История игрушек: Большой побег Toy Story 3 - Songs and Story - 2010, FLAC . Будь первым!

!Обратная связь