Скачать через торрент музыку Человек-паук 2 Spider-Man 2 бесплатно без регистрации torrent

Если у вас наблюдаются проблемы со скриншотами, переходом по ссылками, скачиванием торрентов - проблемы в блокировщике рекламы AdBlock. #хорошегоДня!


Статистика раздачи
Размер:  262 MB   |    Зарегистрирован:  6 лет 8 месяцев   |    .torrent скачан:  51 раз   |   
Раздают:  1  
   
Загрузка...
 
Автор Сообщение

Колян

avatar Колян


Человек-паук 2 / Spider-Man 2


Жанр: Score
Композитор: Danny Elfman
Год выпуска диска: 2004
Год выпуска фильма: 2004
Страна-производитель диска: Германия
Издатель (лейбл): Columbia/Sony Music Soundtrax
Номер по каталогу: COL 517841 2
Аудио кодек: FLAC (*.flac)
Тип рипа: image+.cue
Битрейт аудио: lossless
Продолжительность: 00:48:01

Наличие сканов в содержимом раздачи: да
Треклист:
01. Spider-Man 2 (Main Title)
02. M.J.'s New Life/Spidus Interruptus
03. Dok Ock Is Born
04. A Phone Call/The Wrong Kiss/Peter's Birthday
05. Angry Arms/Rebuilding
06. The Bank/Saving May
07. The Mugging/Peter's Turmoil
08. Doc Ock's Machine
09. He's Back!
10. Train/Appreciation
11. Aunt May Packs
12. Armageddon/A Really Big Web?
13. The Goblin Returns
14. At Long Last, Love
15. Raindrops Keep Fallin' on My Head - Bacharach, Burt
 
Exact Audio Copy V0.99 prebeta 3 from 28. July 2007

EAC extraction logfile from 30. November 2007, 21:40

Danny Elfman / Spider-Man 2

Used drive : PLEXTOR DVDR PX-760A Adapter: 1 ID: 0

Read mode : SecureUtilize accurate stream : YesDefeat audio cache : YesMake use of C2 pointers : No

Read offset correction : 30Overread into Lead-In and Lead-Out : YesFill up missing offset samples with silence : YesDelete leading and trailing silent blocks : NoNull samples used in CRC calculations : YesUsed interface : Installed external ASPI interface

Used output format : Internal WAV RoutinesSample format : 44.100 Hz; 16 Bit; Stereo

TOC of the extracted CD

Track | Start | Length | Start sector | End sector --------------------------------------------------------- 1 | 0:00.00 | 3:21.37 | 0 | 15111 2 | 3:21.37 | 2:31.69 | 15112 | 26505 3 | 5:53.31 | 2:22.74 | 26506 | 37229 4 | 8:16.30 | 2:51.25 | 37230 | 50079 5 | 11:07.55 | 2:06.57 | 50080 | 59586 6 | 13:14.37 | 4:27.28 | 59587 | 79639 7 | 17:41.65 | 3:21.45 | 79640 | 94759 8 | 21:03.35 | 1:42.02 | 94760 | 102411 9 | 22:45.37 | 1:50.02 | 102412 | 110663 10 | 24:35.39 | 6:15.71 | 110664 | 138859 11 | 30:51.35 | 2:51.32 | 138860 | 151716 12 | 33:42.67 | 6:27.73 | 151717 | 180814 13 | 40:10.65 | 1:36.47 | 180815 | 188061 14 | 41:47.37 | 2:59.28 | 188062 | 201514 15 | 44:46.65 | 3:14.38 | 201515 | 216102

Range status and errors

Selected range

Filename E:\EAC\Danny Elfman - Spider-Man 2.wav

Peak level 97.7 % Range quality 100.0 % Copy CRC 53D87F34 Copy OK

No errors occurred

End of status report


Трекер:  [ 25-Дек-2010 13:16 ]

  

Скачать .torrent

Размер .torrent файла 11 KB


Размер: 262 MB
Хэш (hash) релиза: 0dedf007631e6617e1cebe2f0052d9d0b50051b1

Торренты, похожие на Человек-паук 2 Spider-Man 2 скачать торрент

Форум Название Автор Размер S L Добавлен
Саундтреки к фильмам и мультфильмам (lossless) ·· (Score) Человек-паук 2 / Spider-Man 2 (by Danny Elfman) - 2004, FLAC (tracks+.cue), lossless Galfimbul 260686673249 MB 0 0 1380402202

00:03

29-Сен-13

Саундтреки к фильмам и мультфильмам (lossless) ·· (Soundtrack) Человек-паук 2 / Spider-Man 2 (by Danny Elfman & VA) - 2004, FLAC (tracks+.cue), lossless Galfimbul 437055965417 MB 0 0 1292270374

22:59

13-Дек-10

bot

Топик был перенесен в форум Саундтреки к фильмам и мультфильмам (lossless)

Перенес Колян

Хотите добавить комментарий к записи скачать торрент Человек-паук 2 Spider-Man 2

!Обратная связь