Скачать через торрент музыку Boogie Nights + Boogie Nights #2: More Music Ночи в стиле буги - 1997-1998, FLAC бесплатно без регистрации torrent

Если у вас наблюдаются проблемы со скриншотами, переходом по ссылками, скачиванием торрентов - проблемы в блокировщике рекламы AdBlock. #хорошегоДня!


Статистика раздачи
Размер:  658 MB   |    Зарегистрирован:  6 лет 8 месяцев   |    .torrent скачан:  95 раз   |   
Раздают:  1  
   
Загрузка...
 
Автор Сообщение

Mos

avatar Mos


Boogie Nights: Music From The Original Motion Picture (1997)
Жанр: Soundtrack
Год выпуска диска: 1997
Производитель диска: USA
Аудио кодек: FLAC
Тип рипа: tracks+.cue
Битрейт аудио: lossless
Продолжительность: 50:44.867 (134278620 samples)
Трэклист:
01. John C. Reilly & Mark Wahlberg - Intro (Feel The Heat) - (1:11)
02. The Emotions - Best Of My Love - (3:39)
03. Chakachas - Jungle Fever - (4:21)
04. Melanie - Brand New Key - (2:23)
05. War With Eric Burdon - Spill The Wine - (4:02)
06. Marvin Gaye - Got To Give It Up (Part 1) - (4:08)
07. The Commodores - Machine Gun - (2:39)
08. Walter Egan - Magnet & Steel - (3:23)
09. McFadden & Whitehead - Ain't No Stoppin' Us Now - (3:41)
10. Night Ranger - Sister Christian - (5:00)
11. ELO - Livin' Thing - (3:31)
12. The Beach Boys - God Only Knows - (2:49)
13. Michael Penn & Patrick Warren - The Big Top (Theme From 'Boogie Nights') - (9:58)
 
Exact Audio Copy V0.99 prebeta 4 from 23. January 2008

EAC extraction logfile from 28. September 2008, 23:06

Various Artists / Boogie Nights

Used drive : LITE-ON DVDRW SH-16A7S Adapter: 0 ID: 0

Read mode : SecureUtilize accurate stream : YesDefeat audio cache : YesMake use of C2 pointers : No

Read offset correction : 6Overread into Lead-In and Lead-Out : NoFill up missing offset samples with silence : YesDelete leading and trailing silent blocks : NoNull samples used in CRC calculations : YesUsed interface : Native Win32 interface for Win NT & 2000Gap handling : Appended to previous track

Used output format : User Defined EncoderSelected bitrate : 320 kBit/sQuality : HighAdd ID3 tag : NoCommand line compressor : C:\Program Files\Exact Audio Copy\FLAC\FLAC.EXEAdditional command line options : -V -8 -T "artist=%a" -T "title=%t" -T "album=%g" -T "date=%y" -T "tracknumber=%n" -T "genre=%m" %s

TOC of the extracted CD

Track | Start | Length | Start sector | End sector --------------------------------------------------------- 1 | 0:00.00 | 1:11.17 | 0 | 5341 2 | 1:11.17 | 3:39.05 | 5342 | 21771 3 | 4:50.22 | 4:20.53 | 21772 | 41324 4 | 9:11.00 | 2:23.37 | 41325 | 52086 5 | 11:34.37 | 4:02.05 | 52087 | 70241 6 | 15:36.42 | 4:07.60 | 70242 | 88826 7 | 19:44.27 | 2:38.45 | 88827 | 100721 8 | 22:22.72 | 3:23.10 | 100722 | 115956 9 | 25:46.07 | 3:40.65 | 115957 | 132521 10 | 29:26.72 | 5:00.05 | 132522 | 155026 11 | 34:27.02 | 3:30.48 | 155027 | 170824 12 | 37:57.50 | 2:48.57 | 170825 | 183481 13 | 40:46.32 | 9:58.33 | 183482 | 228364

Track 1

Filename C:\Users\Swade\Documents\Boogie Nights - 1997\01 - John C. Reilly & Mark Wahlberg - Intro (Feel The Heat) - John C. Reilly & Mark Wahlberg - Intro (Feel The Heat).wav

Pre-gap length 0:00:02.00

Peak level 91.7 % Track quality 100.0 % Test CRC 3003718A Copy CRC 3003718A Accurately ripped (confidence 28) [ED1B9F97] Copy OK

Track 2

Filename C:\Users\Swade\Documents\Boogie Nights - 1997\02 - The Emotions - Best Of My Love - The Emotions - Best Of My Love.wav

Peak level 99.9 % Track quality 100.0 % Test CRC C46DCDD8 Copy CRC C46DCDD8 Accurately ripped (confidence 30) [6132E8CF] Copy OK

Track 3

Filename C:\Users\Swade\Documents\Boogie Nights - 1997\03 - Chakachas - Jungle Fever - Chakachas - Jungle Fever.wav

Peak level 100.0 % Track quality 100.0 % Test CRC 81309465 Copy CRC 81309465 Accurately ripped (confidence 28) [B04B3FC3] Copy OK

Track 4

Filename C:\Users\Swade\Documents\Boogie Nights - 1997\04 - Melanie - Brand New Key - Melanie - Brand New Key.wav

Peak level 97.6 % Track quality 100.0 % Test CRC 1CB1C3A4 Copy CRC 1CB1C3A4 Accurately ripped (confidence 29) [7CE2F59E] Copy OK

Track 5

Filename C:\Users\Swade\Documents\Boogie Nights - 1997\05 - War With Eric Burdon - Spill The Wine - War With Eric Burdon - Spill The Wine.wav

Peak level 100.0 % Track quality 99.9 % Test CRC F766F8C3 Copy CRC F766F8C3 Accurately ripped (confidence 30) [D35264CE] Copy OK

Track 6

Filename C:\Users\Swade\Documents\Boogie Nights - 1997\06 - Marvin Gaye - Got To Give It Up (Part 1) - Marvin Gaye - Got To Give It Up (Part 1).wav

Peak level 97.7 % Track quality 100.0 % Test CRC A7145837 Copy CRC A7145837 Accurately ripped (confidence 29) [D036A46F] Copy OK

Track 7

Filename C:\Users\Swade\Documents\Boogie Nights - 1997\07 - The Commodores - Machine Gun - The Commodores - Machine Gun.wav

Peak level 94.0 % Track quality 100.0 % Test CRC C402909D Copy CRC C402909D Accurately ripped (confidence 30) [9D32A66B] Copy OK

Track 8

Filename C:\Users\Swade\Documents\Boogie Nights - 1997\08 - Walter Egan - Magnet & Steel - Walter Egan - Magnet & Steel.wav

Peak level 100.0 % Track quality 100.0 % Test CRC 5B4F03C3 Copy CRC 5B4F03C3 Accurately ripped (confidence 30) [4651B550] Copy OK

Track 9

Filename C:\Users\Swade\Documents\Boogie Nights - 1997\09 - McFadden & Whitehead - Ain't No Stoppin' Us Now - McFadden & Whitehead - Ain't No Stoppin' Us Now.wav

Peak level 100.0 % Track quality 100.0 % Test CRC 9C136BCB Copy CRC 9C136BCB Accurately ripped (confidence 29) [327C8520] Copy OK

Track 10

Filename C:\Users\Swade\Documents\Boogie Nights - 1997\10 - Night Ranger - Sister Christian - Night Ranger - Sister Christian.wav

Pre-gap length 0:00:01.02

Peak level 100.0 % Track quality 100.0 % Test CRC 51C45A8D Copy CRC 51C45A8D Accurately ripped (confidence 29) [36BE73F6] Copy OK

Track 11

Filename C:\Users\Swade\Documents\Boogie Nights - 1997\11 - ELO - Livin' Thing - ELO - Livin' Thing.wav

Peak level 100.0 % Track quality 100.0 % Test CRC 63FCA4A6 Copy CRC 63FCA4A6 Accurately ripped (confidence 31) [5FD14D35] Copy OK

Track 12

Filename C:\Users\Swade\Documents\Boogie Nights - 1997\12 - The Beach Boys - God Only Knows - The Beach Boys - God Only Knows.wav

Peak level 92.3 % Track quality 100.0 % Test CRC 7EADFB15 Copy CRC 7EADFB15 Accurately ripped (confidence 30) [BD23A893] Copy OK

Track 13

Filename C:\Users\Swade\Documents\Boogie Nights - 1997\13 - Michael Penn & Patrick Warren - The Big Top (Theme From 'Boogie Nights') - Michael Penn & Patrick Warren - The Big Top (Theme From 'Boogie Nights').wav

Peak level 100.0 % Track quality 100.0 % Test CRC 2536B583 Copy CRC 2536B583 Accurately ripped (confidence 27) [B6B7AA88] Copy OK

All tracks accurately ripped

No errors occurred

End of status report

Boogie Nights #2: More Music From The Original Motion Picture (1998)
Жанр: Soundtrack
Год выпуска диска: 1998
Производитель диска: USA
Аудио кодек: FLAC
Тип рипа: tracks+.cue
Битрейт аудио: lossless
Продолжительность: 50:56.027 (134770776 samples)
Трэклист:
01. Three Dog Night - Mama Told Me Not To Come (3:16)
02. Elvin Bishop - Fooled Around And Fell In Love (4:34)
03. Hot Chocolate - You Sexy Thing (4:03)
04. KC & The Sunshine Band - Boogie Shoes (2:10)
05. Charles Wright & The Watts 103rd St Rhythm Band - Do Your Thing (3:30)
06. Sniff N The Tears - Driver's Seat (4:00)
07. The Move - Feel Too Good (9:30)
08. Rick Springfield - Jessie's Girl (3:13)
09. Sound Experience - J.P. Walk (7:06)
10. The Ohio Players - I Want To Be Free (6:50)
11. Apollo 100 - Joy (2:44)
 
Exact Audio Copy V0.99 prebeta 4 from 23. January 2008

EAC extraction logfile from 22. November 2008, 10:50

Various Artists / Boogie Nights Soundtrack - Vol. 2

Used drive : _NEC DVD_RW ND-3550A Adapter: 3 ID: 0

Read mode : SecureUtilize accurate stream : YesDefeat audio cache : YesMake use of C2 pointers : No

Read offset correction : 48Overread into Lead-In and Lead-Out : NoFill up missing offset samples with silence : YesDelete leading and trailing silent blocks : NoNull samples used in CRC calculations : YesUsed interface : Native Win32 interface for Win NT & 2000Gap handling : Appended to previous track

Used output format : User Defined EncoderSelected bitrate : 768 kBit/sQuality : HighAdd ID3 tag : NoCommand line compressor : C:\Program Files\Exact Audio Copy\FLAC\FLAC.EXEAdditional command line options : -V -8 -T "artist=%a" -T "title=%t" -T "album=%g" -T "date=%y" -T "tracknumber=%n" -T "genre=%m" %s

TOC of the extracted CD

Track | Start | Length | Start sector | End sector --------------------------------------------------------- 1 | 0:00.00 | 3:16.07 | 0 | 14706 2 | 3:16.07 | 4:34.25 | 14707 | 35281 3 | 7:50.32 | 4:02.40 | 35282 | 53471 4 | 11:52.72 | 2:09.43 | 53472 | 63189 5 | 14:02.40 | 3:29.65 | 63190 | 78929 6 | 17:32.30 | 4:00.37 | 78930 | 96966 7 | 21:32.67 | 9:30.10 | 96967 | 139726 8 | 31:03.02 | 3:13.08 | 139727 | 154209 9 | 34:16.10 | 7:05.52 | 154210 | 186136 10 | 41:21.62 | 6:50.28 | 186137 | 216914 11 | 48:12.15 | 2:43.62 | 216915 | 229201 12 | 53:28.02 | 0:48.72 | 240602 | 244273

Track 1

Filename C:\Documents and Settings\Owner\Desktop\More Music From Boogie Nights (1998)\01 Mama Told Me Not To Come.wav

Pre-gap length 0:00:02.00

Peak level 100.0 % Track quality 100.0 % Test CRC 1C15F6D5 Copy CRC 1C15F6D5 Accurately ripped (confidence 10) [C52BC026] Copy OK

Track 2

Filename C:\Documents and Settings\Owner\Desktop\More Music From Boogie Nights (1998)\02 Fooled Around And Fell In Love.wav

Pre-gap length 0:00:00.46

Peak level 100.0 % Track quality 100.0 % Test CRC 2D6AE0BB Copy CRC 2D6AE0BB Accurately ripped (confidence 10) [FEF78D44] Copy OK

Track 3

Filename C:\Documents and Settings\Owner\Desktop\More Music From Boogie Nights (1998)\03 You Sexy Thing.wav

Pre-gap length 0:00:00.62

Peak level 97.7 % Track quality 100.0 % Test CRC 2C44D794 Copy CRC 2C44D794 Accurately ripped (confidence 10) [F4B45584] Copy OK

Track 4

Filename C:\Documents and Settings\Owner\Desktop\More Music From Boogie Nights (1998)\04 Boogie Shoes.wav

Pre-gap length 0:00:00.10

Peak level 100.0 % Track quality 100.0 % Test CRC 5E1B0D31 Copy CRC 5E1B0D31 Accurately ripped (confidence 10) [6C0B8303] Copy OK

Track 5

Filename C:\Documents and Settings\Owner\Desktop\More Music From Boogie Nights (1998)\05 Do Your Thing.wav

Peak level 99.7 % Track quality 100.0 % Test CRC 858EF652 Copy CRC 858EF652 Accurately ripped (confidence 10) [36F18CDF] Copy OK

Track 6

Filename C:\Documents and Settings\Owner\Desktop\More Music From Boogie Nights (1998)\06 Driver's Seat.wav

Pre-gap length 0:00:01.17

Peak level 96.6 % Track quality 100.0 % Test CRC 2D51A188 Copy CRC 2D51A188 Accurately ripped (confidence 10) [53327A45] Copy OK

Track 7

Filename C:\Documents and Settings\Owner\Desktop\More Music From Boogie Nights (1998)\07 Feel Too Good.wav

Pre-gap length 0:00:00.86

Peak level 100.0 % Track quality 100.0 % Test CRC EE9639C4 Copy CRC EE9639C4 Accurately ripped (confidence 10) [1C999355] Copy OK

Track 8

Filename C:\Documents and Settings\Owner\Desktop\More Music From Boogie Nights (1998)\08 Jessie's Girl.wav

Pre-gap length 0:00:00.69

Peak level 100.0 % Track quality 100.0 % Test CRC 82D27FE5 Copy CRC 82D27FE5 Accurately ripped (confidence 10) [3B6F00C6] Copy OK

Track 9

Filename C:\Documents and Settings\Owner\Desktop\More Music From Boogie Nights (1998)\09 J.P. Walk.wav

Pre-gap length 0:00:00.68

Peak level 100.0 % Track quality 100.0 % Test CRC CC23D13D Copy CRC CC23D13D Accurately ripped (confidence 10) [369FB8E5] Copy OK

Track 10

Filename C:\Documents and Settings\Owner\Desktop\More Music From Boogie Nights (1998)\10 I Want To Be Free.wav

Pre-gap length 0:00:00.13

Peak level 100.0 % Track quality 100.0 % Test CRC 99283F89 Copy CRC 99283F89 Accurately ripped (confidence 10) [EE1EB2C3] Copy OK

Track 11

Filename C:\Documents and Settings\Owner\Desktop\More Music From Boogie Nights (1998)\11 Joy.wav

Pre-gap length 0:00:01.00

Peak level 100.0 % Track quality 100.0 % Test CRC 1183D67B Copy CRC 1183D67B Accurately ripped (confidence 10) [242923BA] Copy OK

All tracks accurately ripped

No errors occurred

End of status report


Трекер:  [ 05-Апр-2011 15:19 ]

  

Скачать .torrent

Размер .torrent файла 17 KB


Размер: 658 MB
Хэш (hash) релиза: f4bfcabf70b97b5f8c8fa4d87de5cdb87b027723

bot

Топик был перенесен в форум Саундтреки к фильмам и мультфильмам (lossless)

Перенес Mos

Хотите добавить комментарий к записи скачать торрент Boogie Nights + Boogie Nights #2: More Music Ночи в стиле буги - 1997-1998, FLAC

!Обратная связь