Скачать через торрент музыку Все утра мира Tous Les Matins Du Monde бесплатно без регистрации torrent

Если у вас наблюдаются проблемы со скриншотами, переходом по ссылками, скачиванием торрентов - проблемы в блокировщике рекламы AdBlock. #хорошегоДня!


Статистика раздачи
Размер:  350 MB   |    Зарегистрирован:  6 лет 8 месяцев   |    .torrent скачан:  53 раза   |   
Раздают:  1  
   
Загрузка...
 
Автор Сообщение

Mos

avatar Mos


Все утра мира / Tous Les Matins Du Monde

Жанр: Score / Classical / Baroque
Год выпуска диска: 2001
Производитель диска: France
Аудио кодек: APE
Тип рипа: image+.cue
Битрейт аудио: lossless
Продолжительность: 67:50 min
Трэклист:
01 - Marche pour la ceremonies des Turcs (J.B. Lully)
02 - Improvisation sur les Folies d'Espange (M. Marais)
03 - Prelude pour Mr Vauquelin (J. Savall_Sainte Colombe le Fils)
04 - Gavotte du Tendre (Sainte Colombe)
05 - Une jeune fillette (Melodie populaire - arrangement J. Savall)
06 - Les Pleurs version viole seule (Sainte Colombe)
07 - Concet a deux Violes 'Le Retour' (Sainte Colombe)
08 - La Reveuse (M. Marais)
09 - Troisieme Lecon de Tenebres a 2 voix (F. Couperin)
10 - L'Arabesque (M. Marais)
11 - Fantaisie en mi mineur (Anonyme XVIIe siecle - J. Savall)
12 - Les Pleurs version a 2 violes (Sainte Colombe)
13 - Le Badinage (M. Marais)
14 - Tombeau pour Mr de Sainte Colombe (M. Marais)
15 - Muzettes I-II (M. Marais)
16 - Sonnerie de Ste Genevieve du Mont-de-Paris (M. Marais)
 
Exact Audio Copy V0.99 prebeta 3 from 28. July 2007

EAC extraction logfile from 8. August 2009, 1:53

Jordi Savall / Tous Les Matins Du Monde

Used drive : PBDS CDRWDVD DH-48C2S Adapter: 1 ID: 0

Read mode : SecureUtilize accurate stream : YesDefeat audio cache : YesMake use of C2 pointers : No

Read offset correction : 6Overread into Lead-In and Lead-Out : NoFill up missing offset samples with silence : YesDelete leading and trailing silent blocks : NoNull samples used in CRC calculations : NoUsed interface : Native Win32 interface for Win NT & 2000

Used output format : Internal WAV RoutinesSample format : 44.100 Hz; 16 Bit; Stereo

TOC of the extracted CD

Track | Start | Length | Start sector | End sector --------------------------------------------------------- 1 | 0:00.00 | 2:19.21 | 0 | 10445 2 | 2:19.21 | 1:11.43 | 10446 | 15813 3 | 3:30.64 | 1:48.57 | 15814 | 23970 4 | 5:19.46 | 1:30.13 | 23971 | 30733 5 | 6:49.59 | 2:01.69 | 30734 | 39877 6 | 8:51.53 | 4:09.68 | 39878 | 58620 7 | 13:01.46 | 8:24.15 | 58621 | 96435 8 | 21:25.61 | 5:00.23 | 96436 | 118958 9 | 26:26.09 | 12:48.06 | 118959 | 176564 10 | 39:14.15 | 6:03.64 | 176565 | 203853 11 | 45:18.04 | 2:41.71 | 203854 | 215999 12 | 48:00.00 | 2:24.66 | 216000 | 226865 13 | 50:24.66 | 6:59.10 | 226866 | 258300 14 | 57:24.01 | 7:12.60 | 258301 | 290760 15 | 64:36.61 | 3:13.24 | 290761 | 305259 16 | 67:50.10 | 7:52.67 | 305260 | 340726

Range status and errors

Selected range

Filename C:\Users\Downloads\Tous les matins du monde\Jordi Savall - Tous Les Matins Du Monde.wav

Peak level 100.0 % Range quality 100.0 % Copy CRC 5B3ACEDF Copy OK

No errors occurred

AccurateRip summary

Track 1 accurately ripped (confidence 4) [78BAB36C]Track 2 accurately ripped (confidence 4) [D7F72CFA]Track 3 accurately ripped (confidence 4) [4BA31AAF]Track 4 accurately ripped (confidence 4) [D0430A60]Track 5 accurately ripped (confidence 4) [BA855096]Track 6 accurately ripped (confidence 4) [807E2BC4]Track 7 accurately ripped (confidence 4) [4260B63A]Track 8 accurately ripped (confidence 4) [3B14FD97]Track 9 accurately ripped (confidence 4) [3DC4C8F3]Track 10 accurately ripped (confidence 4) [2595DCE7]Track 11 accurately ripped (confidence 4) [496D2045]Track 12 accurately ripped (confidence 4) [A7C13C20]Track 13 accurately ripped (confidence 4) [FCDD97F4]Track 14 accurately ripped (confidence 4) [7A6C38D7]Track 15 accurately ripped (confidence 4) [1E83F800]Track 16 accurately ripped (confidence 3) [FC0408B8]

All tracks accurately ripped

End of status report


Трекер:  [ 05-Апр-2011 15:18 ]

  

Скачать .torrent

Размер .torrent файла 14 KB


Размер: 350 MB
Хэш (hash) релиза: 4f8d1ddd6389eddb0fa0ff0babc4afb0decc6516

Торренты, похожие на Все утра мира Tous Les Matins Du Monde скачать торрент

Форум Название Автор Размер S L Добавлен
Саундтреки к фильмам и мультфильмам (mp3) ·· (Soundtrack) Все утра мира / All the World's Mornings / Tous les matins du monde - 2001, MP3, 320 kbps Phoenix 181853788173 MB 0 0 1292268220

22:23

13-Дек-10

bot

Топик был перенесен в форум Саундтреки к фильмам и мультфильмам (lossless)

Перенес Mos

Хотите добавить комментарий к записи скачать торрент Все утра мира Tous Les Matins Du Monde

!Обратная связь