Скачать через торрент музыку Various Artists - Tarantinomania бесплатно без регистрации torrent

Если у вас наблюдаются проблемы со скриншотами, переходом по ссылками, скачиванием торрентов - проблемы в блокировщике рекламы AdBlock. #хорошегоДня!


Статистика раздачи
Размер:  1000 MB   |    Зарегистрирован:  6 лет 11 месяцев   |    .torrent скачан:  91 раз   |   
Раздают:  1  
   
Загрузка...
 
Автор Сообщение

FRANKS

avatar FRANKS


Various Artists - Tarantinomania

Жанр: Soundtrack
Год выпуска диска: 1999
Производитель диска: Россия
Аудио кодек: FLAC
Тип рипа: image+.cue
Битрейт аудио: lossless
Продолжительность: 2:39:15
01. Pumpkin and Honey Bunny Speach [00:13]
02. Misirlou // Dick Dale and His Del-Tones [02:11]
03. Girl, You'll Be a Woman Soon // Urge Overkill [03:01]
04. Black Betty // Rem Jem [02:26]
05. Concion Del Mariachi (Morena De Mi Corazon) // Los Lobos and Antonio Banderas [02:02]
06. I Gotcha // Joe Tex [02:21]
07. Hooked on a Feeling // Blue Swede [02:48]
08. Mambo de Muerte // Joseph Julian Gonzalez [02:21]
09. Little Green Bay // George Baker [03:12]
10. Six Blade Knife // Dire Straits [04:28]
11. Bucho's Gracias/Navajas Attack // Los Lobos [02:26]
12. You Never Can Tell // Chuck Berry [03:11]
13. The Future // Leonard Cohen [03:46]
14. Vertigogo (Closing Credits) // Combustible Edison [05:31]
15. Flowers on the Wall // The Statler Brothers [02:22]
16. Spy vs. Spy [03:29]
17. Torquay [02:40]
18. Stuck in the Middle with You // Stealers Wheel [03:22]
19. El Talisman // Rosana [03:35]
20. You Belong to Me // Bob Dylan [03:08]
21. El Punal Y El Corazon // Cafe Tacuba [04:18]
22. Who Is He (And What Is He to You?) // Bill Witners [03:06]
23. Dengue Woman Blues // Jimmie Vaughan [06:11]
24. Punch Drunk [01:04]
25. Ezekiel Speech [00:50]
26. Zorba the Greek (Lock, Stock & Two Smoking Barrels) [02:55]
27. Tarantino Speech [02:27]
 
Exact Audio Copy V0.99 prebeta 4 from 23. January 2008

Отчёт EAC об извлечении, выполненном 18. июня 2009, 7:25

Various Artists / Tarantinomania [CD1]

Дисковод: HL-DT-STDVDRAM GSA-T20N Adapter: 1 ID: 0

Режим чтения : ДостоверностьИспользование точного потока : ДаОтключение кэша аудио : ДаИспользование указателей C2 : Нет

Коррекция смещения при чтении : 667Способность читать области Lead-in и Lead-out : НетЗаполнение пропущенных сэмплов тишиной : ДаУдаление блоков с тишиной в начале и конце : НетПри вычислениях CRC использовались нулевые сэмплы : ДаИнтерфейс : Встроенный Win32-интерфейс для Win NT/2000

Выходной формат : Пользовательский кодировщикВыбранный битрейт : 1024 kBit/sКачество : ВысокийДобавление ID3-тэга : НетУтилита сжатия : C:\Program Files\foobar2000\encoders\Takc.exeДополнительные параметры : -e -p4m -md5 -v %s %d

TOC извлечённого CD

Трек | Старт | Длительность | Начальный сектор | Конечный сектор --------------------------------------------------------------------- 1 | 0:00.00 | 0:13.29 | 0 | 1003 2 | 0:13.29 | 2:11.01 | 1004 | 10829 3 | 2:24.30 | 3:01.20 | 10830 | 24424 4 | 5:25.50 | 2:26.45 | 24425 | 35419 5 | 7:52.20 | 2:02.25 | 35420 | 44594 6 | 9:54.45 | 2:21.66 | 44595 | 55235 7 | 12:16.36 | 2:48.33 | 55236 | 67868 8 | 15:04.69 | 2:21.32 | 67869 | 78475 9 | 17:26.26 | 3:12.63 | 78476 | 92938 10 | 20:39.14 | 4:28.28 | 92939 | 113066 11 | 25:07.42 | 2:26.17 | 113067 | 124033 12 | 27:33.59 | 3:11.47 | 124034 | 138405 13 | 30:45.31 | 3:46.25 | 138406 | 155380 14 | 34:31.56 | 5:31.00 | 155381 | 180205 15 | 40:02.56 | 2:22.03 | 180206 | 190858 16 | 42:24.59 | 3:29.32 | 190859 | 206565 17 | 45:54.16 | 2:40.43 | 206566 | 218608 18 | 48:34.59 | 3:22.45 | 218609 | 233803 19 | 51:57.29 | 3:35.44 | 233804 | 249972 20 | 55:32.73 | 3:08.56 | 249973 | 264128 21 | 58:41.54 | 4:18.43 | 264129 | 283521 22 | 63:00.22 | 3:06.66 | 283522 | 297537 23 | 66:07.13 | 6:11.51 | 297538 | 325413 24 | 72:18.64 | 1:04.58 | 325414 | 330271 25 | 73:23.47 | 0:50.54 | 330272 | 334075 26 | 74:14.26 | 2:55.61 | 334076 | 347261 27 | 77:10.12 | 2:27.08 | 347262 | 358294

Характеристики диапазона извлечения и сообщения об ошибках

Выбранный диапазон

Имя файла D:\Music\Various Artists - Tarantinomania [CD1].wav

Пиковый уровень 100.0 % Качество диапазона 99.9 % CRC теста 96478213 CRC копии 7C429371 Копирование... OK

Ошибок не произошло

AccurateRip: сводка

Трек 1 точное извлечение (доверие 1) [FE07C63A]Трек 2 точное извлечение (доверие 1) [A41182BB]Трек 3 точное извлечение (доверие 1) [B030B94E]Трек 4 точное извлечение (доверие 1) [C134C122]Трек 5 точное извлечение (доверие 1) [5BC7073E]Трек 6 точное извлечение (доверие 1) [B4BE8FBA]Трек 7 точное извлечение (доверие 1) [31D45281]Трек 8 точное извлечение (доверие 1) [F9A61366]Трек 9 точность не определена (достоверность 1) [8B26C41B], AccurateRip вернул [239ECB7D]Трек 10 точное извлечение (доверие 1) [4BD677F5]Трек 11 точное извлечение (доверие 1) [051F738D]Трек 12 точное извлечение (доверие 1) [A3C75019]Трек 13 точное извлечение (доверие 1) [BBCEC283]Трек 14 точное извлечение (доверие 1) [3ED7ECB8]Трек 15 точное извлечение (доверие 1) [D31784E4]Трек 16 точное извлечение (доверие 1) [44F0250A]Трек 17 точное извлечение (доверие 1) [E98F1263]Трек 18 точное извлечение (доверие 1) [199BFFAE]Трек 19 точное извлечение (доверие 1) [2745A5C1]Трек 20 точное извлечение (доверие 1) [A438B1A2]Трек 21 точное извлечение (доверие 1) [4E5FC063]Трек 22 точное извлечение (доверие 1) [663D4FF6]Трек 23 точность не определена (достоверность 1) [62A24510], AccurateRip вернул [52F15AB6]Трек 24 точное извлечение (доверие 1) [66CE2DF5]Трек 25 точное извлечение (доверие 1) [9F256713]Трек 26 точность не определена (достоверность 1) [062622A4], AccurateRip вернул [D861BF24]Трек 27 точность не определена (достоверность 1) [A3CEF7E3], AccurateRip вернул [91838C7A]

23 трек(и) скопированы точно 4 трек(и) не удалось проверить на точность

Некоторые треки не прошли проверку на точность

Конец отчёта
01. Chet's Speech (Pussy Lovers...) [00:41]
02. Angry Cockroaches (Cucarachas Enojadas) // Tito & Tarantula [05:12]
03. Jungle Boogie // Kool and The Gang [03:03]
04. Obsession Confession // Slash [05:35]
05. Across 110th Street // Bobby Womack [03:46]
06. Carnival of Souls [03:05]
07. Monte Carlo Nights // Elliot Easton [03:19]
08. Cumbia De Sort // Joseph Julian Gonzalez [00:45]
09. Danza Macabra Suite // Joseph Julian Gonzalez [03:14]
10. After Dark // Tito & Tarantula [04:08]
11. Detroit 9000 [00:07]
12. Waiting for a Miracle // Leonard Cohen [07:37]
13. The Millionaire's Holiday [02:11]
14. Te Llevare // Tulio Zuloaga [05:10]
15. Foolish Heart // The Mavericks [03:28]
16. Back to the House // Tito & Tarantula [04:26]
17. The Trembler // Duane Eddy [02:19]
18. Inside My Love // Minnie Riperton [03:56]
19. Cumbia Del Monte // Pedro Laza Y Sus Pelayeros [02:33]
20. Sweet Cycle // Tito & Tarantula [04:52]
21. Kids Watch T.V. [02:00]
22. Would You Do Me a Favour? [00:10]
23. Dark Night // The Blasters [03:45]
24. Cadillac (Rota) [01:34]
25. Everybody Be Cool [00:04]
26. Zed's Dead, Baby 'Bull Winkle, Part II' // The Centurions [02:27]
 
Exact Audio Copy V0.99 prebeta 4 from 23. January 2008

Отчёт EAC об извлечении, выполненном 18. июня 2009, 8:53

Various Artists / Tarantinomania [CD2]

Дисковод: HL-DT-STDVDRAM GSA-T20N Adapter: 1 ID: 0

Режим чтения : ДостоверностьИспользование точного потока : ДаОтключение кэша аудио : ДаИспользование указателей C2 : Нет

Коррекция смещения при чтении : 667Способность читать области Lead-in и Lead-out : НетЗаполнение пропущенных сэмплов тишиной : ДаУдаление блоков с тишиной в начале и конце : НетПри вычислениях CRC использовались нулевые сэмплы : ДаИнтерфейс : Встроенный Win32-интерфейс для Win NT/2000

Выходной формат : Пользовательский кодировщикВыбранный битрейт : 1024 kBit/sКачество : ВысокийДобавление ID3-тэга : НетУтилита сжатия : C:\Program Files\foobar2000\encoders\Takc.exeДополнительные параметры : -e -p4m -md5 -v %s %d

TOC извлечённого CD

Трек | Старт | Длительность | Начальный сектор | Конечный сектор --------------------------------------------------------------------- 1 | 0:00.00 | 0:41.73 | 0 | 3147 2 | 0:41.73 | 5:12.00 | 3148 | 26547 3 | 5:53.73 | 3:03.47 | 26548 | 40319 4 | 8:57.45 | 5:35.41 | 40320 | 65485 5 | 14:33.11 | 3:46.51 | 65486 | 82486 6 | 18:19.62 | 3:05.39 | 82487 | 96400 7 | 21:25.26 | 3:19.47 | 96401 | 111372 8 | 24:44.73 | 0:45.28 | 111373 | 114775 9 | 25:30.26 | 3:14.35 | 114776 | 129360 10 | 28:44.61 | 4:08.18 | 129361 | 147978 11 | 32:53.04 | 0:07.16 | 147979 | 148519 12 | 33:00.20 | 7:37.40 | 148520 | 182834 13 | 40:37.60 | 2:11.35 | 182835 | 192694 14 | 42:49.20 | 5:10.17 | 192695 | 215961 15 | 47:59.37 | 3:28.45 | 215962 | 231606 16 | 51:28.07 | 4:26.67 | 231607 | 251623 17 | 55:54.74 | 2:19.51 | 251624 | 262099 18 | 58:14.50 | 3:56.03 | 262100 | 279802 19 | 62:10.53 | 2:33.15 | 279803 | 291292 20 | 64:43.68 | 4:52.08 | 291293 | 313200 21 | 69:36.01 | 2:00.10 | 313201 | 322210 22 | 71:36.11 | 0:10.13 | 322211 | 322973 23 | 71:46.24 | 3:45.02 | 322974 | 339850 24 | 75:31.26 | 1:34.55 | 339851 | 346955 25 | 77:06.06 | 0:04.00 | 346956 | 347255 26 | 77:10.06 | 2:27.45 | 347256 | 358325

Характеристики диапазона извлечения и сообщения об ошибках

Выбранный диапазон

Имя файла D:\Music\Various Artists - Tarantinomania [CD2].wav

Пиковый уровень 100.0 % Качество диапазона 99.9 % CRC теста 932C7CD0 CRC копии 932C7CD0 Копирование... OK

Ошибок не произошло

AccurateRip: сводка

Трек 1 точное извлечение (доверие 1) [003D208F]Трек 2 точное извлечение (доверие 1) [BA86748C]Трек 3 точное извлечение (доверие 1) [14C51B6F]Трек 4 точное извлечение (доверие 1) [CCF11C1F]Трек 5 точное извлечение (доверие 1) [4B799563]Трек 6 точное извлечение (доверие 1) [64629FE1]Трек 7 точное извлечение (доверие 1) [30A7AA76]Трек 8 точное извлечение (доверие 1) [3B070B7E]Трек 9 точное извлечение (доверие 1) [92FE6B0F]Трек 10 точное извлечение (доверие 1) [88C3C203]Трек 11 точное извлечение (доверие 1) [5EBF7618]Трек 12 точное извлечение (доверие 1) [EDBAB56D]Трек 13 точное извлечение (доверие 1) [DF4617DC]Трек 14 точное извлечение (доверие 1) [4390BF0A]Трек 15 точное извлечение (доверие 1) [2924BBC3]Трек 16 точное извлечение (доверие 1) [85F268A9]Трек 17 точное извлечение (доверие 1) [81F1AD43]Трек 18 точное извлечение (доверие 1) [098D552F]Трек 19 точное извлечение (доверие 1) [6B9FF307]Трек 20 точное извлечение (доверие 1) [26A74E2A]Трек 21 точное извлечение (доверие 1) [F183708E]Трек 22 точное извлечение (доверие 1) [65A4C13F]Трек 23 точное извлечение (доверие 1) [88BC35A6]Трек 24 точное извлечение (доверие 1) [E057D7FD]Трек 25 нет в базе данныхТрек 26 точность не определена (достоверность 1) [7622BE1A], AccurateRip вернул [974EF6CE]

24 трек(и) скопированы точно 1 трек(и) не удалось проверить на точность 1 трек(и) не содержатся в базе AccurateRip

Некоторые треки не прошли проверку на точность

Конец отчёта


Трекер:  [ 30-Дек-2010 17:27 ]

  

Скачать .torrent

Размер .torrent файла 20 KB


Размер: 1000 MB
Хэш (hash) релиза: 770a63f0a8ef890834f85e9cd79510a577bb1aef

bot

Топик был перенесен в форум Саундтреки к фильмам и мультфильмам (lossless)

Перенес FRANKS

Хотите добавить комментарий к записи скачать торрент Various Artists - Tarantinomania

!Обратная связь