Скачать через торрент музыку Giorgio Moroder Magic Movie Hits - 1999, APE бесплатно без регистрации torrent

Если у вас наблюдаются проблемы со скриншотами, переходом по ссылками, скачиванием торрентов - проблемы в блокировщике рекламы AdBlock. #хорошегоДня!


Статистика раздачи
Размер:  478 MB   |    Зарегистрирован:  6 лет 3 месяца   |    .torrent скачан:  47 раз   |   
Раздают:  1  
   
Загрузка...
 
Автор Сообщение

Galfimbul

avatar Galfimbul


Giorgio Moroder Magic Movie Hits

Жанр: Soundtrack
Год выпуска диска: 1999
Аудио кодек: APE
Тип рипа: image+.cue
Битрейт аудио: lossless
Трэклист:
01. Freddie Mercury / Love Kills 04:29
02. Giorgio Moroder / Chase 04:21
03. Limahl / Neverending Story 05:19
04. Berlin / Take My Breath Away 04:12
05. Jennifer Rush / Another Way 04:33
06. Kenny Loggins / Meet Me Half Way 03:41
07. Joe Esposito / Lady, Lady, Lady 04:09
08. Donna Summer / On The Radio 04:04
09. Diana Dewitt / Flashdance... What a feeling 03:51
10. David Bowie / Cat People (Putting Out Fire) 06:44
11. Mr. Big / Strike Light Lighting 03:40
12. Blondie / Call Me 03:32
13. Cher / Bad Love 05:28
14. Chaka Khan / No See, No Cry 03:18
15. Philip Oakey & Giorgio Moroder / Together in Electric Dreams 03:53
16. Eddie Money / I Will Be Strong 03:20
17. Bonnie Tyler / Here She Comes 03:49
Доп. информация:
Exact Audio Copy V0.99 prebeta 3 from 28. July 2007

Отчёт EAC об извлечении, выполненном 13. июля 2008, 9:58

Various / Giorgio Moroder Magic Movie Hits

Дисковод: ASUS DRW-2014L1T Adapter: 3 ID: 0

Режим чтения : Достоверность
Использование точного потока : Да
Отключение кэша аудио : Да
Использование указателей C2 : Нет

Коррекция смещения при чтении : 6
Способность читать области Lead-in и Lead-out : Нет
Заполнение пропущенных сэмплов тишиной : Да
Удаление блоков с тишиной в начале и конце : Нет
При вычислениях CRC использовались нулевые сэмплы : Да
Интерфейс : Встроенный Win32-интерфейс для Win NT/2000

Выходной формат : Внутренние WAV-операции
Формат сэмплов : 44.100 Гц; 16 бит; стерео

TOC извлечённого CD

Трек | Старт | Длительность | Начальный сектор | Конечный сектор
---------------------------------------------------------------------
1 | 0:00.00 | 4:29.30 | 0 | 20204
2 | 4:29.30 | 4:21.63 | 20205 | 39842
3 | 8:51.18 | 5:19.74 | 39843 | 63841
4 | 14:11.17 | 4:12.35 | 63842 | 82776
5 | 18:23.52 | 4:33.44 | 82777 | 103295
6 | 22:57.21 | 3:41.24 | 103296 | 119894
7 | 26:38.45 | 4:09.64 | 119895 | 138633
8 | 30:48.34 | 4:04.03 | 138634 | 156936
9 | 34:52.37 | 3:51.03 | 156937 | 174264
10 | 38:43.40 | 6:44.15 | 174265 | 204579
11 | 45:27.55 | 3:40.21 | 204580 | 221100
12 | 49:08.01 | 3:32.24 | 221101 | 237024
13 | 52:40.25 | 5:28.17 | 237025 | 261641
14 | 58:08.42 | 3:18.72 | 261642 | 276563
15 | 61:27.39 | 3:53.70 | 276564 | 294108
16 | 65:21.34 | 3:20.46 | 294109 | 309154
17 | 68:42.05 | 3:49.36 | 309155 | 326365

Характеристики диапазона извлечения и сообщения об ошибках

Выбранный диапазон

Имя файла Giorgio Moroder Magic Movie Hits.wav

Пиковый уровень 100.0 %
Качество диапазона 100.0 %
CRC копии 0EF0E516
Копирование... OK

Ошибок не произошло

Конец отчёта


Трекер:  [ 08-Июл-2011 17:33 ]

  

Скачать .torrent

Размер .torrent файла 19 KB


Размер: 478 MB
Хэш (hash) релиза: 4eb685acfefe24f8cd7ab2f291a3cd46cf04fe23

Еще никто не оставлял запись к записи скачать торрент Giorgio Moroder Magic Movie Hits - 1999, APE . Будь первым!

!Обратная связь