Скачать через торрент музыку Невидимая сторона The Blind Side бесплатно без регистрации torrent

Если у вас наблюдаются проблемы со скриншотами, переходом по ссылками, скачиванием торрентов - проблемы в блокировщике рекламы AdBlock. #хорошегоДня!


Статистика раздачи
Размер:  236 MB   |    Зарегистрирован:  6 лет 8 месяцев   |    .torrent скачан:  42 раза   |   
Раздают:  1  
   
Загрузка...
 
Автор Сообщение

FRANKS

avatar FRANKS


Невидимая сторона / The Blind Side

Жанр: Score || Композитор: Carter Burwell || Год выпуска: 2010 || Страна: USA || Аудио кодек: FLAC || Тип рипа: tracks+.cue || Битрейт аудио: lossless
Продолжительность: 00:39:42 ||
Tracklist:
01 - To Protect His Blind Side (01:05)
02 - Cello Song (03:52)
03 - All Things Are Possible - Your Father (02:17)
04 - Osmosis (01:11)
05 - The Hang Of It (00:51)
06 - Unsquare Dance (02:01)
07 - Eviction (01:02)
08 - Summer Training (01:34)
09 - Moms (01:12)
10 - Thank Me Later (01:48)
11 - Part Of The Family (01:14)
12 - The First Game (01:13)
13 - Gridiron Machine (01:30)
14 - Inspired Play (01:37)
15 - Taming Lions (01:35)
16 - The Art Of Recruiting (02:21)
17 - The Light Brigade (02:42)
18 - Michael Graduates (00:49)
19 - It's Your Life (01:16)
20 - My Son Michael (02:05)
21 - Going Up The Country (02:53)
22 - Chances (03:34)

 
X Lossless Decoder version 20101010 (123.3)

XLD extraction logfile from 2010-10-16 00:29:57 -0400

Carter Burwell / The Blind Side

Used drive : OPTIARC DVD RW AD-5680H (revision 3AHB)

Use cdparanoia mode : YES (CDParanoia III 10.2 engine)Disable audio cache : OK for the drive with cache less than 2750KBMake use of C2 pointers : NORead offset correction : 48Max retry count : 100Gap status : Analyzed, Appended

TOC of the extracted CD Track | Start | Length | Start sector | End sector --------------------------------------------------------- 1 | 00:00:00 | 01:04:63 | 0 | 4862 2 | 01:04:63 | 03:52:21 | 4863 | 22283 3 | 04:57:09 | 02:16:66 | 22284 | 32549 4 | 07:14:00 | 01:10:56 | 32550 | 37855 5 | 08:24:56 | 00:50:55 | 37856 | 41660 6 | 09:15:36 | 02:01:10 | 41661 | 50745 7 | 11:16:46 | 01:01:50 | 50746 | 55370 8 | 12:18:21 | 01:34:25 | 55371 | 62445 9 | 13:52:46 | 01:11:55 | 62446 | 67825 10 | 15:04:26 | 01:47:71 | 67826 | 75921 11 | 16:52:22 | 01:13:60 | 75922 | 81456 12 | 18:06:07 | 01:13:21 | 81457 | 86952 13 | 19:19:28 | 01:30:33 | 86953 | 93735 14 | 20:49:61 | 01:37:26 | 93736 | 101036 15 | 22:27:12 | 01:35:19 | 101037 | 108180 16 | 24:02:31 | 02:21:28 | 108181 | 118783 17 | 26:23:59 | 02:42:09 | 118784 | 130942 18 | 29:05:68 | 00:49:22 | 130943 | 134639 19 | 29:55:15 | 01:16:33 | 134640 | 140372 20 | 31:11:48 | 02:04:67 | 140373 | 149739 21 | 33:16:40 | 02:52:41 | 149740 | 162680 22 | 36:09:06 | 03:33:67 | 162681 | 178722

All Tracks Album gain : -7.55 dB Peak : 1.000000

Track 01 Filename : /Music/Carter Burwell - The Blind Side (2010) [FLAC]/01 To Protect His Blind Side.flac Pre-gap length : 00:02:00

Track gain : -7.09 dB Peak : 0.994141 CRC32 hash (test run) : C983C808 CRC32 hash : C983C808 CRC32 hash (skip zero) : 425B48AE AccurateRip signature : D042110C ->Track not present in AccurateRip database. Statistics Read error : 0 Skipped (treated as error) : 0 Edge jitter error (maybe fixed) : 0 Atom jitter error (maybe fixed) : 0 Drift error (maybe fixed) : 0 Dropped bytes error (maybe fixed) : 0 Duplicated bytes error (maybe fixed) : 0 Inconsistency in error sectors : 0

Track 02 Filename : /Music/Carter Burwell - The Blind Side (2010) [FLAC]/02 Cello Song.flac

Track gain : -5.66 dB Peak : 0.933807 CRC32 hash (test run) : ECDD2E1B CRC32 hash : ECDD2E1B CRC32 hash (skip zero) : 4D062DD6 AccurateRip signature : 660BF5CD ->Track not present in AccurateRip database. Statistics Read error : 0 Skipped (treated as error) : 0 Edge jitter error (maybe fixed) : 0 Atom jitter error (maybe fixed) : 0 Drift error (maybe fixed) : 0 Dropped bytes error (maybe fixed) : 0 Duplicated bytes error (maybe fixed) : 0 Inconsistency in error sectors : 0

Track 03 Filename : /Music/Carter Burwell - The Blind Side (2010) [FLAC]/03 All Things Are Possible - Your Father.flac

Track gain : -6.95 dB Peak : 0.977448 CRC32 hash (test run) : BFB0397C CRC32 hash : BFB0397C CRC32 hash (skip zero) : 7824A010 AccurateRip signature : ED095824 ->Track not present in AccurateRip database. Statistics Read error : 0 Skipped (treated as error) : 0 Edge jitter error (maybe fixed) : 0 Atom jitter error (maybe fixed) : 0 Drift error (maybe fixed) : 0 Dropped bytes error (maybe fixed) : 0 Duplicated bytes error (maybe fixed) : 0 Inconsistency in error sectors : 0

Track 04 Filename : /Music/Carter Burwell - The Blind Side (2010) [FLAC]/04 Osmosis.flac

Track gain : -7.13 dB Peak : 0.977386 CRC32 hash (test run) : 67CD52BA CRC32 hash : 67CD52BA CRC32 hash (skip zero) : ED8F3319 AccurateRip signature : B7648CEB ->Track not present in AccurateRip database. Statistics Read error : 0 Skipped (treated as error) : 0 Edge jitter error (maybe fixed) : 0 Atom jitter error (maybe fixed) : 0 Drift error (maybe fixed) : 0 Dropped bytes error (maybe fixed) : 0 Duplicated bytes error (maybe fixed) : 0 Inconsistency in error sectors : 0

Track 05 Filename : /Music/Carter Burwell - The Blind Side (2010) [FLAC]/05 The Hang Of It.flac

Track gain : -7.26 dB Peak : 0.985229 CRC32 hash (test run) : 315925AA CRC32 hash : 315925AA CRC32 hash (skip zero) : 8DCCBBF7 AccurateRip signature : 0ED2F313 ->Track not present in AccurateRip database. Statistics Read error : 0 Skipped (treated as error) : 0 Edge jitter error (maybe fixed) : 0 Atom jitter error (maybe fixed) : 0 Drift error (maybe fixed) : 0 Dropped bytes error (maybe fixed) : 0 Duplicated bytes error (maybe fixed) : 0 Inconsistency in error sectors : 0

Track 06 Filename : /Music/Carter Burwell - The Blind Side (2010) [FLAC]/06 Unsquare Dance.flac

Track gain : -5.84 dB Peak : 0.999969 CRC32 hash (test run) : 2BC14A58 CRC32 hash : 2BC14A58 CRC32 hash (skip zero) : D19ADF14 AccurateRip signature : 11D3C81E ->Track not present in AccurateRip database. Statistics Read error : 0 Skipped (treated as error) : 0 Edge jitter error (maybe fixed) : 0 Atom jitter error (maybe fixed) : 0 Drift error (maybe fixed) : 0 Dropped bytes error (maybe fixed) : 0 Duplicated bytes error (maybe fixed) : 0 Inconsistency in error sectors : 0

Track 07 Filename : /Music/Carter Burwell - The Blind Side (2010) [FLAC]/07 Eviction.flac

Track gain : -8.74 dB Peak : 0.977631 CRC32 hash (test run) : 40D2D52E CRC32 hash : 40D2D52E CRC32 hash (skip zero) : FFF9CD31 AccurateRip signature : 9DD4D247 ->Track not present in AccurateRip database. Statistics Read error : 0 Skipped (treated as error) : 0 Edge jitter error (maybe fixed) : 0 Atom jitter error (maybe fixed) : 0 Drift error (maybe fixed) : 0 Dropped bytes error (maybe fixed) : 0 Duplicated bytes error (maybe fixed) : 0 Inconsistency in error sectors : 0

Track 08 Filename : /Music/Carter Burwell - The Blind Side (2010) [FLAC]/08 Summer Training.flac

Track gain : -5.72 dB Peak : 0.988770 CRC32 hash (test run) : CB462946 CRC32 hash : CB462946 CRC32 hash (skip zero) : FC66227A AccurateRip signature : 1129BFE0 ->Track not present in AccurateRip database. Statistics Read error : 0 Skipped (treated as error) : 0 Edge jitter error (maybe fixed) : 0 Atom jitter error (maybe fixed) : 0 Drift error (maybe fixed) : 0 Dropped bytes error (maybe fixed) : 0 Duplicated bytes error (maybe fixed) : 0 Inconsistency in error sectors : 0

Track 09 Filename : /Music/Carter Burwell - The Blind Side (2010) [FLAC]/09 Moms.flac

Track gain : -4.80 dB Peak : 0.977448 CRC32 hash (test run) : F6F80CC3 CRC32 hash : F6F80CC3 CRC32 hash (skip zero) : 82926500 AccurateRip signature : 4848B837 ->Track not present in AccurateRip database. Statistics Read error : 0 Skipped (treated as error) : 0 Edge jitter error (maybe fixed) : 0 Atom jitter error (maybe fixed) : 0 Drift error (maybe fixed) : 0 Dropped bytes error (maybe fixed) : 0 Duplicated bytes error (maybe fixed) : 0 Inconsistency in error sectors : 0

Track 10 Filename : /Music/Carter Burwell - The Blind Side (2010) [FLAC]/10 Thank Me Later.flac

Track gain : -7.38 dB Peak : 1.000000 CRC32 hash (test run) : CF261C11 CRC32 hash : CF261C11 CRC32 hash (skip zero) : 1A44779A AccurateRip signature : 652969A6 ->Track not present in AccurateRip database. Statistics Read error : 0 Skipped (treated as error) : 0 Edge jitter error (maybe fixed) : 0 Atom jitter error (maybe fixed) : 0 Drift error (maybe fixed) : 0 Dropped bytes error (maybe fixed) : 0 Duplicated bytes error (maybe fixed) : 0 Inconsistency in error sectors : 0

Track 11 Filename : /Music/Carter Burwell - The Blind Side (2010) [FLAC]/11 Part Of The Family.flac

Track gain : -7.45 dB Peak : 0.978271 CRC32 hash (test run) : 694A1AEB CRC32 hash : 694A1AEB CRC32 hash (skip zero) : 1F83AAAD AccurateRip signature : 3BB01CEE ->Track not present in AccurateRip database. Statistics Read error : 0 Skipped (treated as error) : 0 Edge jitter error (maybe fixed) : 0 Atom jitter error (maybe fixed) : 0 Drift error (maybe fixed) : 0 Dropped bytes error (maybe fixed) : 0 Duplicated bytes error (maybe fixed) : 0 Inconsistency in error sectors : 0

Track 12 Filename : /Music/Carter Burwell - The Blind Side (2010) [FLAC]/12 The First Game.flac

Track gain : -8.21 dB Peak : 0.980865 CRC32 hash (test run) : A255912C CRC32 hash : A255912C CRC32 hash (skip zero) : 4AFD01E8 AccurateRip signature : 3BC4AE83 ->Track not present in AccurateRip database. Statistics Read error : 0 Skipped (treated as error) : 0 Edge jitter error (maybe fixed) : 0 Atom jitter error (maybe fixed) : 0 Drift error (maybe fixed) : 0 Dropped bytes error (maybe fixed) : 0 Duplicated bytes error (maybe fixed) : 0 Inconsistency in error sectors : 0

Track 13 Filename : /Music/Carter Burwell - The Blind Side (2010) [FLAC]/13 Gridiron Machine.flac

Track gain : -7.79 dB Peak : 0.999969 CRC32 hash (test run) : 91595D4F CRC32 hash : 91595D4F CRC32 hash (skip zero) : 30FD3617 AccurateRip signature : 2358CCB4 ->Track not present in AccurateRip database. Statistics Read error : 0 Skipped (treated as error) : 0 Edge jitter error (maybe fixed) : 0 Atom jitter error (maybe fixed) : 0 Drift error (maybe fixed) : 0 Dropped bytes error (maybe fixed) : 0 Duplicated bytes error (maybe fixed) : 0 Inconsistency in error sectors : 0

Track 14 Filename : /Music/Carter Burwell - The Blind Side (2010) [FLAC]/14 Inspired Play.flac

Track gain : -8.46 dB Peak : 0.982422 CRC32 hash (test run) : E7243B7F CRC32 hash : E7243B7F CRC32 hash (skip zero) : 762BB228 AccurateRip signature : 531512B5 ->Track not present in AccurateRip database. Statistics Read error : 0 Skipped (treated as error) : 0 Edge jitter error (maybe fixed) : 0 Atom jitter error (maybe fixed) : 0 Drift error (maybe fixed) : 0 Dropped bytes error (maybe fixed) : 0 Duplicated bytes error (maybe fixed) : 0 Inconsistency in error sectors : 0

Track 15 Filename : /Music/Carter Burwell - The Blind Side (2010) [FLAC]/15 Taming Lions.flac

Track gain : -7.26 dB Peak : 1.000000 CRC32 hash (test run) : 347E06EB CRC32 hash : 347E06EB CRC32 hash (skip zero) : 046CD53F AccurateRip signature : 5384C151 ->Track not present in AccurateRip database. Statistics Read error : 0 Skipped (treated as error) : 0 Edge jitter error (maybe fixed) : 0 Atom jitter error (maybe fixed) : 0 Drift error (maybe fixed) : 0 Dropped bytes error (maybe fixed) : 0 Duplicated bytes error (maybe fixed) : 0 Inconsistency in error sectors : 0

Track 16 Filename : /Music/Carter Burwell - The Blind Side (2010) [FLAC]/16 The Art Of Recruiting.flac

Track gain : -7.38 dB Peak : 0.993103 CRC32 hash (test run) : E705A363 CRC32 hash : E705A363 CRC32 hash (skip zero) : C5CAA39C AccurateRip signature : C2F407F4 ->Track not present in AccurateRip database. Statistics Read error : 0 Skipped (treated as error) : 0 Edge jitter error (maybe fixed) : 0 Atom jitter error (maybe fixed) : 0 Drift error (maybe fixed) : 0 Dropped bytes error (maybe fixed) : 0 Duplicated bytes error (maybe fixed) : 0 Inconsistency in error sectors : 0

Track 17 Filename : /Music/Carter Burwell - The Blind Side (2010) [FLAC]/17 The Light Brigade.flac

Track gain : -8.16 dB Peak : 0.979584 CRC32 hash (test run) : 23E2E64B CRC32 hash : 23E2E64B CRC32 hash (skip zero) : CB1F65F8 AccurateRip signature : 60AFC83D ->Track not present in AccurateRip database. Statistics Read error : 0 Skipped (treated as error) : 0 Edge jitter error (maybe fixed) : 0 Atom jitter error (maybe fixed) : 0 Drift error (maybe fixed) : 0 Dropped bytes error (maybe fixed) : 0 Duplicated bytes error (maybe fixed) : 0 Inconsistency in error sectors : 0

Track 18 Filename : /Music/Carter Burwell - The Blind Side (2010) [FLAC]/18 Michael Graduates.flac

Track gain : -7.50 dB Peak : 0.977661 CRC32 hash (test run) : 2FA7EC51 CRC32 hash : 2FA7EC51 CRC32 hash (skip zero) : B8FDD52A AccurateRip signature : 9FDDBD26 ->Track not present in AccurateRip database. Statistics Read error : 0 Skipped (treated as error) : 0 Edge jitter error (maybe fixed) : 0 Atom jitter error (maybe fixed) : 0 Drift error (maybe fixed) : 0 Dropped bytes error (maybe fixed) : 0 Duplicated bytes error (maybe fixed) : 0 Inconsistency in error sectors : 0

Track 19 Filename : /Music/Carter Burwell - The Blind Side (2010) [FLAC]/19 It's Your Life.flac

Track gain : -9.42 dB Peak : 0.977478 CRC32 hash (test run) : 4A6D73F3 CRC32 hash : 4A6D73F3 CRC32 hash (skip zero) : FB449F9A AccurateRip signature : F08DC99B ->Track not present in AccurateRip database. Statistics Read error : 0 Skipped (treated as error) : 0 Edge jitter error (maybe fixed) : 0 Atom jitter error (maybe fixed) : 0 Drift error (maybe fixed) : 0 Dropped bytes error (maybe fixed) : 0 Duplicated bytes error (maybe fixed) : 0 Inconsistency in error sectors : 0

Track 20 Filename : /Music/Carter Burwell - The Blind Side (2010) [FLAC]/20 My Son Michael.flac

Track gain : -7.41 dB Peak : 0.977661 CRC32 hash (test run) : A9FAAA7F CRC32 hash : A9FAAA7F CRC32 hash (skip zero) : 4844EB15 AccurateRip signature : 83629613 ->Track not present in AccurateRip database. Statistics Read error : 0 Skipped (treated as error) : 0 Edge jitter error (maybe fixed) : 0 Atom jitter error (maybe fixed) : 0 Drift error (maybe fixed) : 0 Dropped bytes error (maybe fixed) : 0 Duplicated bytes error (maybe fixed) : 0 Inconsistency in error sectors : 0

Track 21 Filename : /Music/Carter Burwell - The Blind Side (2010) [FLAC]/21 Going Up The Country.flac

Track gain : -7.52 dB Peak : 0.988525 CRC32 hash (test run) : E577AE6B CRC32 hash : E577AE6B CRC32 hash (skip zero) : 60E2B94A AccurateRip signature : 41B589C7 ->Track not present in AccurateRip database. Statistics Read error : 0 Skipped (treated as error) : 0 Edge jitter error (maybe fixed) : 0 Atom jitter error (maybe fixed) : 0 Drift error (maybe fixed) : 0 Dropped bytes error (maybe fixed) : 0 Duplicated bytes error (maybe fixed) : 0 Inconsistency in error sectors : 0

Track 22 Filename : /Music/Carter Burwell - The Blind Side (2010) [FLAC]/22 Chances.flac

Track gain : -7.89 dB Peak : 0.850861 CRC32 hash (test run) : 653E33C2 CRC32 hash : 653E33C2 CRC32 hash (skip zero) : 04C68171 AccurateRip signature : D5BF2F4D ->Track not present in AccurateRip database. Statistics Read error : 0 Skipped (treated as error) : 0 Edge jitter error (maybe fixed) : 0 Atom jitter error (maybe fixed) : 0 Drift error (maybe fixed) : 0 Dropped bytes error (maybe fixed) : 0 Duplicated bytes error (maybe fixed) : 0 Inconsistency in error sectors : 0

No errors occurred

End of status report
 
TITLE "The Blind Side"PERFORMER "Carter Burwell"REM GENRE "Soundtrack"REM DATE 2010REM DISCID 48094E16FILE "01 To Protect His Blind Side.wav" WAVE TRACK 01 AUDIO TITLE "To Protect His Blind Side" PERFORMER "Carter Burwell" ISRC 000000000000 INDEX 01 00:00:00FILE "02 Cello Song.wav" WAVE TRACK 02 AUDIO TITLE "Cello Song" PERFORMER "The Books & Jose Gonzalez" ISRC 000000000000 INDEX 01 00:00:00FILE "03 All Things Are Possible - Your Father.wav" WAVE TRACK 03 AUDIO TITLE "All Things Are Possible - Your Father" PERFORMER "Carter Burwell" ISRC 000000000000 INDEX 01 00:00:00FILE "04 Osmosis.wav" WAVE TRACK 04 AUDIO TITLE "Osmosis" PERFORMER "Carter Burwell" ISRC 000000000000 INDEX 01 00:00:00FILE "05 The Hang Of It.wav" WAVE TRACK 05 AUDIO TITLE "The Hang Of It" PERFORMER "Carter Burwell" ISRC 000000000000 INDEX 01 00:00:00FILE "06 Unsquare Dance.wav" WAVE TRACK 06 AUDIO TITLE "Unsquare Dance" PERFORMER "The Dave Brubeck Quartet" ISRC 000000000000 INDEX 01 00:00:00FILE "07 Eviction.wav" WAVE TRACK 07 AUDIO TITLE "Eviction" PERFORMER "Carter Burwell" ISRC MTKDW1212345 INDEX 01 00:00:00FILE "08 Summer Training.wav" WAVE TRACK 08 AUDIO TITLE "Summer Training" PERFORMER "Carter Burwell" ISRC MTKDW1212345 INDEX 01 00:00:00FILE "09 Moms.wav" WAVE TRACK 09 AUDIO TITLE "Moms" PERFORMER "Carter Burwell" ISRC 000000000000 INDEX 01 00:00:00FILE "10 Thank Me Later.wav" WAVE TRACK 10 AUDIO TITLE "Thank Me Later" PERFORMER "Carter Burwell" ISRC 000000000000 INDEX 01 00:00:00FILE "11 Part Of The Family.wav" WAVE TRACK 11 AUDIO TITLE "Part Of The Family" PERFORMER "Carter Burwell" ISRC 000000000000 INDEX 01 00:00:00FILE "12 The First Game.wav" WAVE TRACK 12 AUDIO TITLE "The First Game" PERFORMER "Carter Burwell" ISRC 000000000000 INDEX 01 00:00:00FILE "13 Gridiron Machine.wav" WAVE TRACK 13 AUDIO TITLE "Gridiron Machine" PERFORMER "Carter Burwell" ISRC 000000000000 INDEX 01 00:00:00FILE "14 Inspired Play.wav" WAVE TRACK 14 AUDIO TITLE "Inspired Play" PERFORMER "Carter Burwell" ISRC 000000000000 INDEX 01 00:00:00FILE "15 Taming Lions.wav" WAVE TRACK 15 AUDIO TITLE "Taming Lions" PERFORMER "Carter Burwell" ISRC 000000000000 INDEX 01 00:00:00FILE "16 The Art Of Recruiting.wav" WAVE TRACK 16 AUDIO TITLE "The Art Of Recruiting" PERFORMER "Carter Burwell" ISRC 000000000000 INDEX 01 00:00:00FILE "17 The Light Brigade.wav" WAVE TRACK 17 AUDIO TITLE "The Light Brigade" PERFORMER "Carter Burwell" ISRC 000000000000 INDEX 01 00:00:00FILE "18 Michael Graduates.wav" WAVE TRACK 18 AUDIO TITLE "Michael Graduates" PERFORMER "Carter Burwell" ISRC 000000000000 INDEX 01 00:00:00FILE "19 It's Your Life.wav" WAVE TRACK 19 AUDIO TITLE "It's Your Life" PERFORMER "Carter Burwell" ISRC 000000000000 INDEX 01 00:00:00FILE "20 My Son Michael.wav" WAVE TRACK 20 AUDIO TITLE "My Son Michael" PERFORMER "Carter Burwell" ISRC 000000000000 INDEX 01 00:00:00FILE "21 Going Up The Country.wav" WAVE TRACK 21 AUDIO TITLE "Going Up The Country" PERFORMER "Canned Heat" ISRC 000000000000 INDEX 01 00:00:00FILE "22 Chances.wav" WAVE TRACK 22 AUDIO TITLE "Chances" PERFORMER "Five For Fighting" ISRC 000000000000 INDEX 01 00:00:00



Трекер:  [ 29-Дек-2010 16:05 ]

  

Скачать .torrent

Размер .torrent файла 20 KB


Размер: 236 MB
Хэш (hash) релиза: 928d42922bdf7d92b73c01c3fc88887fa90bf636

Торренты, похожие на Невидимая сторона The Blind Side скачать торрент

Форум Название Автор Размер S L Добавлен
Саундтреки к фильмам и мультфильмам (mp3) ·· (Soundtrack) The Blind Side / Невидимая сторона (Carter Burwell) - 2010 (2009), MP3 (tracks), 320 kbps Phoenix 104467331100 MB 0 0 1292268247

22:24

13-Дек-10

bot

Топик был перенесен в форум Музыка (Готовые раздачи)

Перенес FRANKS

bot

Топик был перенесен из форума Музыка (Готовые раздачи) в форум Саундтреки к фильмам и мультфильмам (lossless)

Mos

Хотите добавить комментарий к записи скачать торрент Невидимая сторона The Blind Side

!Обратная связь