Скачать через торрент музыку Ennio Morricone - Il Mio Nome E Nessuno - 1973, WAVPack бесплатно без регистрации torrent

Если у вас наблюдаются проблемы со скриншотами, переходом по ссылками, скачиванием торрентов - проблемы в блокировщике рекламы AdBlock. #хорошегоДня!


Статистика раздачи
Размер:  412 MB   |    Зарегистрирован:  6 лет 2 месяца   |    .torrent скачан:  40 раз   |   
Раздают:  1  
   
Загрузка...
 
Автор Сообщение

Galfimbul

avatar Galfimbul


Ennio Morricone - Il Mio Nome E' Nessuno

Жанр: Score
Год выпуска диска: 1973
Аудио кодек: WAVPack
Тип рипа: image+.cue
Битрейт аудио: lossless
Трэклист:
01. Il Mio Nome E' Nessuno
02. Buona Fortuna Jack
03. Mucchio Selvaggio
04. Se Sei Qualcuno E' Colpa Mia
05. Con I Migliori Auguri
06. Uno Strano Barbiere
07. Pio' Delle Valchirie
08. Una Insolita Attesa
09. Balletto Degli Specchi
10. La Favola Dell 'Uccellino
11. Il Mio Nome E' Nessuno
12. Buona Fortuna Jack
13. Mucchio Selvaggio
14. Uno Strano Barbiere
15. Il Mio Nome E' Nessuno
16. Se Sei Qualcuno E' Colpa Mia
17. Buona Fortuna Jack
18. Mucchio Selvaggio
19. Uno Strano Barbiere
20. Mucchio Selvaggio
21. Il Mio Nome E' Nessuno
22. Mucchio Selvaggio
23. Se Sei Qualcuno E' Colpa Mia
Exact Audio Copy V0.99 prebeta 3 from 28. July 2007

EAC extraction logfile from 17. November 2007, 19:28

Ennio Morricone / Il Mio Nome E' Nessuno

Used drive : PLEXTOR DVDR PX-760A Adapter: 1 ID: 0

Read mode : Secure
Utilize accurate stream : Yes
Defeat audio cache : Yes
Make use of C2 pointers : No

Read offset correction : 30
Overread into Lead-In and Lead-Out : Yes
Fill up missing offset samples with silence : Yes
Delete leading and trailing silent blocks : No
Null samples used in CRC calculations : Yes
Used interface : Installed external ASPI interface

Used output format : Internal WAV Routines
Sample format : 44.100 Hz; 16 Bit; Stereo

TOC of the extracted CD

Track | Start | Length | Start sector | End sector
---------------------------------------------------------
1 | 0:00.00 | 3:14.12 | 0 | 14561
2 | 3:14.12 | 5:11.53 | 14562 | 37939
3 | 8:25.65 | 2:42.37 | 37940 | 50126
4 | 11:08.27 | 4:49.60 | 50127 | 71861
5 | 15:58.12 | 2:07.45 | 71862 | 81431
6 | 18:05.57 | 7:01.25 | 81432 | 113031
7 | 25:07.07 | 2:23.20 | 113032 | 123776
8 | 27:30.27 | 2:07.15 | 123777 | 133316
9 | 29:37.42 | 1:34.08 | 133317 | 140374
10 | 31:11.50 | 1:48.45 | 140375 | 148519
11 | 33:00.20 | 3:15.71 | 148520 | 163215
12 | 36:16.16 | 1:54.19 | 163216 | 171784
13 | 38:10.35 | 1:20.01 | 171785 | 177785
14 | 39:30.36 | 3:06.35 | 177786 | 191770
15 | 42:36.71 | 2:22.66 | 191771 | 202486
16 | 44:59.62 | 7:21.66 | 202487 | 235627
17 | 52:21.53 | 5:29.12 | 235628 | 260314
18 | 57:50.65 | 1:16.61 | 260315 | 266075
19 | 59:07.51 | 3:09.57 | 266076 | 280307
20 | 62:17.33 | 3:35.57 | 280308 | 296489
21 | 65:53.15 | 1:33.26 | 296490 | 303490
22 | 67:26.41 | 2:34.67 | 303491 | 315107
23 | 70:01.33 | 4:31.54 | 315108 | 335486

Range status and errors

Selected range

Filename E:\EAC\Ennio Morricone - Il Mio Nome E' Nessuno.wav

Peak level 100.0 %
Range quality 100.0 %
Copy CRC 7AA07EE3
Copy OK

No errors occurred

End of status report


Трекер:  [ 08-Июл-2011 17:33 ]

  

Скачать .torrent

Размер .torrent файла 17 KB


Размер: 412 MB
Хэш (hash) релиза: 97dde7ebb3cfb709c6431152a583a3f795b0fde1

Еще никто не оставлял запись к записи скачать торрент Ennio Morricone - Il Mio Nome E Nessuno - 1973, WAVPack . Будь первым!

!Обратная связь