Скачать через торрент музыку Insomnia Бессонница бесплатно без регистрации torrent

Если у вас наблюдаются проблемы со скриншотами, переходом по ссылками, скачиванием торрентов - проблемы в блокировщике рекламы AdBlock. #хорошегоДня!


Статистика раздачи
Размер:  255 MB   |    Зарегистрирован:  6 лет 8 месяцев   |    .torrent скачан:  60 раз   |   
Раздают:  1  
   
Загрузка...
 
Автор Сообщение

FRANKS

avatar FRANKS


Insomnia / Бессонница
Жанр: Score
Год выпуска диска: 2002
Производитель диска: USA
Аудио кодек: FLAC
Тип рипа: tracks+.cue
Битрейт аудио: lossless
Продолжительность: 57:06

Трэклист:

01. Opening Title / Blood Drips
02. The Glacier
03. Kay's Theme
04. Kay's BAg
05. Fog
06. Will Hides The Gun
07. Call To Hap's Widow
08. Crimescene
09. The Dead Dog
10. Walter's Phone Call
11. Kay's Funeral
12. Walter's Apartment
13. Ellie's Theme
14. Will Confronts Walter
15. Will's Confession
16. Walter's Lake House
17. Let Me Sleep
18. Closing Titles
Exact Audio Copy V0.99 prebeta 5 from 4. May 2009

EAC extraction logfile from 11. August 2009, 19:45

David Julyan / Insomnia OST

Used drive : Optiarc DVD RW AD-7170A Adapter: 0 ID: 0

Read mode : Secure
Utilize accurate stream : Yes
Defeat audio cache : Yes
Make use of C2 pointers : No

Read offset correction : 48
Overread into Lead-In and Lead-Out : No
Fill up missing offset samples with silence : Yes
Delete leading and trailing silent blocks : No
Null samples used in CRC calculations : Yes
Used interface : Native Win32 interface for Win NT & 2000
Gap handling : Appended to previous track

Used output format : User Defined Encoder
Selected bitrate : 320 kBit/s
Quality : High
Add ID3 tag : No
Command line compressor : C:\Program Files\Exact Audio Copy\Flac\flac.exe
Additional command line options : -8 -V -T "ARTIST=%a" -T "TITLE=%t" -T "ALBUM=%g" -T "DATE=%y" -T "TRACKNUMBER=%n" -T "GENRE=%m" -T "COMMENT=EAC FLAC -8" %s

TOC of the extracted CD

Track | Start | Length | Start sector | End sector
---------------------------------------------------------
1 | 0:00.00 | 2:48.32 | 0 | 12631
2 | 2:48.32 | 3:03.33 | 12632 | 26389
3 | 5:51.65 | 3:43.15 | 26390 | 43129
4 | 9:35.05 | 2:15.60 | 43130 | 53314
5 | 11:50.65 | 5:13.72 | 53315 | 76861
6 | 17:04.62 | 2:12.53 | 76862 | 86814
7 | 19:17.40 | 3:45.40 | 86815 | 103729
8 | 23:03.05 | 2:25.10 | 103730 | 114614
9 | 25:28.15 | 3:30.72 | 114615 | 130436
10 | 28:59.12 | 3:22.63 | 130437 | 145649
11 | 32:22.00 | 1:21.05 | 145650 | 151729
12 | 33:43.05 | 3:37.37 | 151730 | 168041
13 | 37:20.42 | 1:51.65 | 168042 | 176431
14 | 39:12.32 | 2:44.13 | 176432 | 188744
15 | 41:56.45 | 2:33.25 | 188745 | 200244
16 | 44:29.70 | 5:47.50 | 200245 | 226319
17 | 50:17.45 | 2:43.17 | 226320 | 238561
18 | 53:00.62 | 4:05.13 | 238562 | 256949

Track 1

Filename K:\SoundTrack_Insomnia\ 01. David Julyan – Opening Title , Blood Drips.wav

Pre-gap length 0:00:02.00

Peak level 87.6 %
Track quality 100.0 %
Test CRC 6BCD8F12
Copy CRC 6BCD8F12
Copy OK

Track 2

Filename K:\SoundTrack_Insomnia\ 02. David Julyan – The Glacier.wav

Peak level 81.4 %
Track quality 100.0 %
Test CRC 36221041
Copy CRC 36221041
Copy OK

Track 3

Filename K:\SoundTrack_Insomnia\ 03. David Julyan – Kay's Theme.wav

Peak level 15.4 %
Track quality 100.0 %
Test CRC C57FAFD1
Copy CRC C57FAFD1
Copy OK

Track 4

Filename K:\SoundTrack_Insomnia\ 04. David Julyan – Kay's BAg.wav

Peak level 44.4 %
Track quality 99.9 %
Test CRC 3A8D1448
Copy CRC 3A8D1448
Copy OK

Track 5

Filename K:\SoundTrack_Insomnia\ 05. David Julyan – Fog.wav

Peak level 99.9 %
Track quality 100.0 %
Test CRC 17666E65
Copy CRC 17666E65
Copy OK

Track 6

Filename K:\SoundTrack_Insomnia\ 06. David Julyan – Will Hides The Gun.wav

Peak level 14.6 %
Track quality 100.0 %
Test CRC 24BE3B89
Copy CRC 24BE3B89
Copy OK

Track 7

Filename K:\SoundTrack_Insomnia\ 07. David Julyan – Call To Hap's Widow.wav

Peak level 81.4 %
Track quality 100.0 %
Test CRC 20AC9B00
Copy CRC 20AC9B00
Copy OK

Track 8

Filename K:\SoundTrack_Insomnia\ 08. David Julyan – Crimescene.wav

Peak level 32.1 %
Track quality 99.9 %
Test CRC 1D7734D0
Copy CRC 1D7734D0
Copy OK

Track 9

Filename K:\SoundTrack_Insomnia\ 09. David Julyan – The Dead Dog.wav

Peak level 33.4 %
Track quality 100.0 %
Test CRC D0734CF5
Copy CRC D0734CF5
Copy OK

Track 10

Filename K:\SoundTrack_Insomnia\ 10. David Julyan – Walter's Phone Call.wav

Peak level 27.4 %
Track quality 100.0 %
Test CRC 6465B4DF
Copy CRC 6465B4DF
Copy OK

Track 11

Filename K:\SoundTrack_Insomnia\ 11. David Julyan – Kay's Funeral.wav

Peak level 38.0 %
Track quality 100.0 %
Test CRC 1132BC08
Copy CRC 1132BC08
Copy OK

Track 12

Filename K:\SoundTrack_Insomnia\ 12. David Julyan – Walter's Apartment.wav

Peak level 86.2 %
Track quality 99.9 %
Test CRC A5AECDAB
Copy CRC A5AECDAB
Copy OK

Track 13

Filename K:\SoundTrack_Insomnia\ 13. David Julyan – Ellie's Theme.wav

Peak level 48.6 %
Track quality 100.0 %
Test CRC 6CB471F2
Copy CRC 6CB471F2
Copy OK

Track 14

Filename K:\SoundTrack_Insomnia\ 14. David Julyan – Will Confronts Walter.wav

Peak level 35.7 %
Track quality 100.0 %
Test CRC C94B63E3
Copy CRC C94B63E3
Copy OK

Track 15

Filename K:\SoundTrack_Insomnia\ 15. David Julyan – Will's Confession.wav

Peak level 37.4 %
Track quality 100.0 %
Test CRC 9F56FFB7
Copy CRC 9F56FFB7
Copy OK

Track 16

Filename K:\SoundTrack_Insomnia\ 16. David Julyan – Walter's Lake House.wav

Peak level 81.6 %
Track quality 99.9 %
Test CRC 8A0043DD
Copy CRC 8A0043DD
Copy OK

Track 17

Filename K:\SoundTrack_Insomnia\ 17. David Julyan – Let Me Sleep.wav

Peak level 87.2 %
Track quality 100.0 %
Test CRC 9F5EBE50
Copy CRC 9F5EBE50
Copy OK

Track 18

Filename K:\SoundTrack_Insomnia\ 18. David Julyan – Closing Titles.wav

Peak level 86.3 %
Track quality 100.0 %
Test CRC 9B5CF26B
Copy CRC 9B5CF26B
Copy OK

No errors occurred

End of status report



Трекер:  [ 29-Дек-2010 15:23 ]

  

Скачать .torrent

Размер .torrent файла 22 KB


Размер: 255 MB
Хэш (hash) релиза: dc5a7e5bdd16c84fd5c5f277191f36dd5d0db5a3

bot

Топик был перенесен в форум Музыка (Готовые раздачи)

Перенес FRANKS

bot

Топик был перенесен из форума Музыка (Готовые раздачи) в форум Саундтреки к фильмам и мультфильмам (lossless)

Mos

Хотите добавить комментарий к записи скачать торрент Insomnia Бессонница

!Обратная связь