Скачать через торрент музыку Парк Юрского периода: Трилогия Jurassic Park бесплатно без регистрации torrent

Если у вас наблюдаются проблемы со скриншотами, переходом по ссылками, скачиванием торрентов - проблемы в блокировщике рекламы AdBlock. #хорошегоДня!


Статистика раздачи
Размер:  956 MB   |    Зарегистрирован:  6 лет 2 месяца   |    .torrent скачан:  63 раза   |   
Раздают:  1  
   
Загрузка...
 
Автор Сообщение

Galfimbul

avatar Galfimbul


Jurassic Park (1993)
The Lost World: Jurassic Park
(1997)
Jurassic Park III
(2001)
Жанр
: Score
Аудио кодек: FLAC
Тип рипа: tracks+.cue
Битрейт аудио: lossless
Продолжительность (3 диска): 3:13:42
01. John Williams — Opening Titles 0:33
02.
John Williams — Theme from Jurassic Park 3:27
03.
John Williams — Incident at Isla Nublar 5:20
04.
John Williams — Journey to the Island 8:53
05.
John Williams — The Raptor Attack 2:49
06.
John Williams — Hatching Baby Raptor 3:21
07.
John Williams — Welcome to Jurassic Park 7:55
08.
John Williams — My Friend, the Brachiosaurus 4:16
09.
John Williams — Dennis Steals the Embryo 4:56
10.
John Williams — A Tree for My Bed 2:12
11.
John Williams — High-Wire Stunts 4:09
12.
John Williams — Remembering Petticoat Lane 2:48
13.
John Williams — Jurassic Park Gate 2:04
14.
John Williams — Eye to Eye 6:32
15.
John Williams — T-Rex Rescue & Finale 7:40
16.
John Williams — End Credits 3:25
Издатель диска
: MCA Records (Великобритания, 1993)
 
EAC extraction logfile from 21. January 2007, 16:15 for CDJohn Williams / Jurassic Park

Used drive : HL-DT-STDVD-ROM GDR8161B Adapter: 2 ID: 1Read mode : Secure with NO C2, accurate stream, disable cacheRead offset correction : 102Overread into Lead-In and Lead-Out : No

Used output format : Internal WAV Routines 44.100 Hz; 16 Bit; Stereo

Other options : Fill up missing offset samples with silence : Yes Delete leading and trailing silent blocks : No Installed external ASPI interface

Track 1 Filename C:\..\John Williams - Jurassic Park (1993) [FLAC]\01 - Opening Titles.wav

Pre-gap length 0:00:02.00

Peak level 81.2 % Track quality 100.0 % Test CRC 050DD1B5 Copy CRC 050DD1B5 Copy OK

Track 2 Filename C:\..\John Williams - Jurassic Park (1993) [FLAC]\02 - Theme from Jurassic Park.wav

Pre-gap length 0:00:00.46

Peak level 81.2 % Track quality 100.0 % Test CRC 338B20B9 Copy CRC 338B20B9 Copy OK

Track 3 Filename C:\..\John Williams - Jurassic Park (1993) [FLAC]\03 - Incident at Isla Nublar.wav

Pre-gap length 0:00:00.86

Peak level 85.9 % Track quality 100.0 % Test CRC 50B5F690 Copy CRC 50B5F690 Copy OK

Track 4 Filename C:\..\John Williams - Jurassic Park (1993) [FLAC]\04 - Journey To The Island.wav

Pre-gap length 0:00:01.00

Peak level 94.0 % Track quality 100.0 % Test CRC 23AEF4F4 Copy CRC 23AEF4F4 Copy OK

Track 5 Filename C:\..\John Williams - Jurassic Park (1993) [FLAC]\05 - The Raptor Attack.wav

Pre-gap length 0:00:01.13

Peak level 75.7 % Track quality 100.0 % Test CRC 369575F8 Copy CRC 369575F8 Copy OK

Track 6 Filename C:\..\John Williams - Jurassic Park (1993) [FLAC]\06 - Hatching Baby Raptor.wav

Pre-gap length 0:00:01.46

Peak level 30.0 % Track quality 99.9 % Test CRC F5915B30 Copy CRC F5915B30 Copy OK

Track 7 Filename C:\..\John Williams - Jurassic Park (1993) [FLAC]\07 - Welcome To Jurassic Park.wav

Pre-gap length 0:00:00.66

Peak level 86.7 % Track quality 100.0 % Test CRC E52507AF Copy CRC E52507AF Copy OK

Track 8 Filename C:\..\John Williams - Jurassic Park (1993) [FLAC]\08 - My Friend The Brachiosaurus.wav

Pre-gap length 0:00:01.10

Peak level 23.9 % Track quality 100.0 % Test CRC 1E692CF5 Copy CRC 1E692CF5 Copy OK

Track 9 Filename C:\..\John Williams - Jurassic Park (1993) [FLAC]\09 - Dennis Steals The Embryo.wav

Pre-gap length 0:00:01.10

Peak level 40.3 % Track quality 100.0 % Test CRC 46392CBA Copy CRC 46392CBA Copy OK

Track 10 Filename C:\..\John Williams - Jurassic Park (1993) [FLAC]\10 - A Tree For My Bed.wav

Peak level 10.2 % Track quality 100.0 % Test CRC C314FE0C Copy CRC C314FE0C Copy OK

Track 11 Filename C:\..\John Williams - Jurassic Park (1993) [FLAC]\11 - High-Wire Stunts.wav

Pre-gap length 0:00:01.29

Peak level 88.6 % Track quality 99.9 % Test CRC DADA9D82 Copy CRC DADA9D82 Copy OK

Track 12 Filename C:\..\John Williams - Jurassic Park (1993) [FLAC]\12 - Remembering Petticoat Lane.wav

Pre-gap length 0:00:01.80

Peak level 15.6 % Track quality 100.0 % Test CRC F584DB0C Copy CRC F584DB0C Copy OK

Track 13 Filename C:\..\John Williams - Jurassic Park (1993) [FLAC]\13 - Jurassic Park Gate.wav

Pre-gap length 0:00:01.37

Peak level 66.9 % Track quality 99.9 % Test CRC A3852340 Copy CRC A3852340 Copy OK

Track 14 Filename C:\..\John Williams - Jurassic Park (1993) [FLAC]\14 - Eye To Eye.wav

Pre-gap length 0:00:01.29

Peak level 89.5 % Track quality 100.0 % Test CRC 49B0C944 Copy CRC 49B0C944 Copy OK

Track 15 Filename C:\..\John Williams - Jurassic Park (1993) [FLAC]\15 - T-Rex Rescue & Finale.wav

Pre-gap length 0:00:01.06

Peak level 82.2 % Track quality 100.0 % Test CRC CB6D9054 Copy CRC CB6D9054 Copy OK

Track 16 Filename C:\..\John Williams - Jurassic Park (1993) [FLAC]\16 - End Credits.wav

Pre-gap length 0:00:01.49

Peak level 84.9 % Track quality 100.0 % Test CRC 553D1ECE Copy CRC 553D1ECE Copy OK

No errors occured

End of status report
 
REM ACCURATERIPID 0027c493-01e3c7d4-d1107a10REM DISCID D1107A10REM COMMENT "ExactAudioCopy v0.95b3"PERFORMER "John Williams"TITLE "Jurassic Park"REM DATE 1993REM GENRE "Soundtrack"FILE "01 - Opening Titles.flac" WAVE TRACK 01 AUDIO TITLE "Opening Titles" PERFORMER "John Williams" INDEX 01 00:00:00 TRACK 02 AUDIO TITLE "Theme from Jurassic Park" PERFORMER "John Williams" INDEX 00 00:32:15FILE "02 - Theme from Jurassic Park.flac" WAVE INDEX 01 00:00:00 TRACK 03 AUDIO TITLE "Incident at Isla Nublar" PERFORMER "John Williams" INDEX 00 03:26:42FILE "03 - Incident at Isla Nublar.flac" WAVE INDEX 01 00:00:00 TRACK 04 AUDIO TITLE "Journey to the Island" PERFORMER "John Williams" INDEX 00 05:19:13FILE "04 - Journey to the Island.flac" WAVE INDEX 01 00:00:00 TRACK 05 AUDIO TITLE "The Raptor Attack" PERFORMER "John Williams" INDEX 00 08:51:45FILE "05 - The Raptor Attack.flac" WAVE INDEX 01 00:00:00 TRACK 06 AUDIO TITLE "Hatching Baby Raptor" PERFORMER "John Williams" INDEX 00 02:47:35FILE "06 - Hatching Baby Raptor.flac" WAVE INDEX 01 00:00:00 TRACK 07 AUDIO TITLE "Welcome to Jurassic Park" PERFORMER "John Williams" INDEX 00 03:19:65FILE "07 - Welcome to Jurassic Park.flac" WAVE INDEX 01 00:00:00 TRACK 08 AUDIO TITLE "My Friend, the Brachiosaurus" PERFORMER "John Williams" INDEX 00 07:53:62FILE "08 - My Friend the Brachiosaurus.flac" WAVE INDEX 01 00:00:00 TRACK 09 AUDIO TITLE "Dennis Steals the Embryo" PERFORMER "John Williams" INDEX 00 04:15:12FILE "09 - Dennis Steals the Embryo.flac" WAVE INDEX 01 00:00:00FILE "10 - A Tree for My Bed.flac" WAVE TRACK 10 AUDIO TITLE "A Tree for My Bed" PERFORMER "John Williams" INDEX 01 00:00:00 TRACK 11 AUDIO TITLE "High-Wire Stunts" PERFORMER "John Williams" INDEX 00 02:10:73FILE "11 - High-Wire Stunts.flac" WAVE INDEX 01 00:00:00 TRACK 12 AUDIO TITLE "Remembering Petticoat Lane" PERFORMER "John Williams" INDEX 00 04:07:18FILE "12 - Remembering Petticoat Lane.flac" WAVE INDEX 01 00:00:00 TRACK 13 AUDIO TITLE "Jurassic Park Gate" PERFORMER "John Williams" INDEX 00 02:46:17FILE "13 - Jurassic Park Gate.flac" WAVE INDEX 01 00:00:00 TRACK 14 AUDIO TITLE "Eye to Eye" PERFORMER "John Williams" INDEX 00 02:02:40FILE "14 - Eye to Eye.flac" WAVE INDEX 01 00:00:00 TRACK 15 AUDIO TITLE "T-Rex Rescue & Finale" PERFORMER "John Williams" INDEX 00 06:31:00FILE "15 - T-Rex Rescue , Finale.flac" WAVE INDEX 01 00:00:00 TRACK 16 AUDIO TITLE "End Credits" PERFORMER "John Williams" INDEX 00 07:38:13FILE "16 - End Credits.flac" WAVE INDEX 01 00:00:00
 
[Verification date: 2.1.10 20:12:58][Disc ID: 0027c493-01e3c7d4-d1107a10]Track [ CRC ] Status 01 [dac535af] (04/08) Accurately ripped 02 [1977eda7] (04/08) Accurately ripped 03 [70d82d22] (04/08) Accurately ripped 04 [7a46d986] (04/08) Accurately ripped 05 [0a1133c8] (04/08) Accurately ripped 06 [9b7ffdf3] (04/08) Accurately ripped 07 [bb2eb575] (04/08) Accurately ripped 08 [6fe6b5e6] (04/08) Accurately ripped 09 [e66d9b5b] (04/08) Accurately ripped 10 [9989703f] (04/08) Accurately ripped 11 [1dc19970] (04/08) Accurately ripped 12 [f5eee0de] (04/08) Accurately ripped 13 [30667825] (04/08) Accurately ripped 14 [ceaa7bbc] (04/08) Accurately ripped 15 [e5c94477] (04/08) Accurately ripped 16 [f8e87a00] (04/07) Accurately rippedOffsetted by -378: 01 [68f402e8] (04/08) Accurately ripped 02 [968cf250] (04/08) Accurately ripped 03 [45f66832] (04/08) Accurately ripped 04 [cb13ba14] (04/08) Accurately ripped 05 [8a694b92] (04/08) Accurately ripped 06 [4dfe1e10] (04/08) Accurately ripped 07 [c4d3fa4c] (04/08) Accurately ripped 08 [7de6c915] (04/08) Accurately ripped 09 [6951c71e] (04/08) Accurately ripped 10 [838e51e3] (04/08) Accurately ripped 11 [335779db] (04/08) Accurately ripped 12 [c22de2ec] (04/08) Accurately ripped 13 [3ed554b8] (04/08) Accurately ripped 14 [508a9159] (04/08) Partial match 15 [b9970eb3] (04/08) Accurately ripped 16 [99d2b79e] (03/07) Accurately ripped

Track [ CRC32 ] [W/O NULL] [ LOG ] -- [845E8C6B] [1B4E8394] 01 [050DD1B5] [14D7E91F] CRC32 02 [338B20B9] [6276CF9F] CRC32 03 [50B5F690] [5E775627] CRC32 04 [23AEF4F4] [7BD74E52] CRC32 05 [369575F8] [25844099] CRC32 06 [F5915B30] [F9072919] CRC32 07 [E52507AF] [B239530A] CRC32 08 [1E692CF5] [4E85EDD6] CRC32 09 [46392CBA] [F27DBE81] CRC32 10 [C314FE0C] [B5840E2F] CRC32 11 [DADA9D82] [87D2FBC1] CRC32 12 [F584DB0C] [1CC69048] CRC32 13 [A3852340] [3CDFF1A3] CRC32 14 [49B0C944] [08CB6738] CRC32 15 [CB6D9054] [DD99995C] CRC32 16 [553D1ECE] [AEB13CA1] CRC32
01. John Williams — The Lost World 3:34
02.
John Williams — The Island Prologue 5:03
03.
John Williams — Malcolm's Journey 5:44
04.
John Williams — The Hunt 3:30
05.
John Williams — The Trek 5:24
06.
John Williams — Finding Camp Jurassic 3:03
07.
John Williams — Rescuing Sarah 4:00
08.
John Williams — Hammond's Plan 4:31
09.
John Williams — The Raptors Appear 3:43
10.
John Williams — The Compys Dine 5:07
11.
John Williams — The Stegosaurus 5:20
12.
John Williams — Ludlow's Demise 4:27
13.
John Williams — Visitor in San Diego 7:38
14.
John Williams — Finale and Jurassic Park Theme 7:54
Издатель диска
: MCA Records (США, 1997)
 
Exact Audio Copy V0.99 prebeta 4 from 23. January 2008

EAC extraction logfile from 28. April 2009, 13:29

John Williams / The Lost World: Jurassic Park

Used drive : HL-DT-STDVD-RW GSA-H60L Adapter: 1 ID: 0

Read mode : SecureUtilize accurate stream : YesDefeat audio cache : YesMake use of C2 pointers : No

Read offset correction : 667Overread into Lead-In and Lead-Out : NoFill up missing offset samples with silence : YesDelete leading and trailing silent blocks : NoNull samples used in CRC calculations : YesUsed interface : Native Win32 interface for Win NT & 2000Gap handling : Appended to previous track

Used output format : User Defined EncoderSelected bitrate : 320 kBit/sQuality : HighAdd ID3 tag : NoCommand line compressor : C:\Program Files\FLAC\flac.exeAdditional command line options : -V -5 -T \"artist=%a\" -T \"title=%t\" -T \"album=%g\" -T \"date=%y\" -T \"tracknumber=%n\" -T \"genre=%m\" %s

TOC of the extracted CD

Track | Start | Length | Start sector | End sector --------------------------------------------------------- 1 | 0:00.00 | 3:33.50 | 0 | 16024 2 | 3:33.50 | 5:03.14 | 16025 | 38763 3 | 8:36.64 | 5:43.43 | 38764 | 64531 4 | 14:20.32 | 3:30.05 | 64532 | 80286 5 | 17:50.37 | 5:23.60 | 80287 | 104571 6 | 23:14.22 | 3:03.28 | 104572 | 118324 7 | 26:17.50 | 4:00.35 | 118325 | 136359 8 | 30:18.10 | 4:31.32 | 136360 | 156716 9 | 34:49.42 | 3:42.63 | 156717 | 173429 10 | 38:32.30 | 5:07.10 | 173430 | 196464 11 | 43:39.40 | 5:20.22 | 196465 | 220486 12 | 48:59.62 | 4:26.43 | 220487 | 240479 13 | 53:26.30 | 7:37.60 | 240480 | 274814 14 | 61:04.15 | 7:54.17 | 274815 | 310381

Track 1

Filename L:\EACrips\The Lost World- Jurassic Park [1997, EAC-CUE-LOG] - John Williams\01 - The Lost World.wav

Pre-gap length 0:00:02.00

Peak level 80.7 % Track quality 100.0 % Test CRC 241506ED Copy CRC 241506ED Track not present in AccurateRip database Copy OK

Track 2

Filename L:\EACrips\The Lost World- Jurassic Park [1997, EAC-CUE-LOG] - John Williams\02 - The Island Prologue.wav

Peak level 86.1 % Track quality 99.9 % Test CRC EB4B8571 Copy CRC EB4B8571 Track not present in AccurateRip database Copy OK

Track 3

Filename L:\EACrips\The Lost World- Jurassic Park [1997, EAC-CUE-LOG] - John Williams\03 - Malcolm's Journey.wav

Peak level 84.9 % Track quality 100.0 % Test CRC 554412E4 Copy CRC 554412E4 Track not present in AccurateRip database Copy OK

Track 4

Filename L:\EACrips\The Lost World- Jurassic Park [1997, EAC-CUE-LOG] - John Williams\04 - The Hunt.wav

Peak level 77.7 % Track quality 100.0 % Test CRC 977E47AB Copy CRC 977E47AB Track not present in AccurateRip database Copy OK

Track 5

Filename L:\EACrips\The Lost World- Jurassic Park [1997, EAC-CUE-LOG] - John Williams\05 - The Trek.wav

Peak level 95.4 % Track quality 100.0 % Test CRC EE81657F Copy CRC EE81657F Track not present in AccurateRip database Copy OK

Track 6

Filename L:\EACrips\The Lost World- Jurassic Park [1997, EAC-CUE-LOG] - John Williams\06 - Finding Camp Jurassic.wav

Peak level 27.9 % Track quality 100.0 % Test CRC 4815B9E7 Copy CRC 4815B9E7 Track not present in AccurateRip database Copy OK

Track 7

Filename L:\EACrips\The Lost World- Jurassic Park [1997, EAC-CUE-LOG] - John Williams\07 - Rescuing Sarah.wav

Peak level 93.6 % Track quality 100.0 % Test CRC 515F9393 Copy CRC 515F9393 Track not present in AccurateRip database Copy OK

Track 8

Filename L:\EACrips\The Lost World- Jurassic Park [1997, EAC-CUE-LOG] - John Williams\08 - Hammond's Plan.wav

Peak level 64.8 % Track quality 100.0 % Test CRC B0568DF7 Copy CRC B0568DF7 Track not present in AccurateRip database Copy OK

Track 9

Filename L:\EACrips\The Lost World- Jurassic Park [1997, EAC-CUE-LOG] - John Williams\09 - The Raptors Appear.wav

Peak level 93.3 % Track quality 99.9 % Test CRC B577E0A2 Copy CRC B577E0A2 Track not present in AccurateRip database Copy OK

Track 10

Filename L:\EACrips\The Lost World- Jurassic Park [1997, EAC-CUE-LOG] - John Williams\10 - The Compys Dine.wav

Peak level 88.4 % Track quality 100.0 % Test CRC 4971E416 Copy CRC 4971E416 Track not present in AccurateRip database Copy OK

Track 11

Filename L:\EACrips\The Lost World- Jurassic Park [1997, EAC-CUE-LOG] - John Williams\11 - The Stegosaurus.wav

Peak level 87.3 % Track quality 100.0 % Test CRC A947D81F Copy CRC A947D81F Track not present in AccurateRip database Copy OK

Track 12

Filename L:\EACrips\The Lost World- Jurassic Park [1997, EAC-CUE-LOG] - John Williams\12 - Ludlow's Demise.wav

Peak level 87.3 % Track quality 100.0 % Test CRC BEB2BAC0 Copy CRC BEB2BAC0 Track not present in AccurateRip database Copy OK

Track 13

Filename L:\EACrips\The Lost World- Jurassic Park [1997, EAC-CUE-LOG] - John Williams\13 - Visitor in San Diego.wav

Peak level 94.7 % Track quality 100.0 % Test CRC C1911E83 Copy CRC C1911E83 Track not present in AccurateRip database Copy OK

Track 14

Filename L:\EACrips\The Lost World- Jurassic Park [1997, EAC-CUE-LOG] - John Williams\14 - Finale And Jurassic Park Theme.wav

Peak level 72.5 % Track quality 99.9 % Test CRC C3012B3B Copy CRC C3012B3B Track not present in AccurateRip database Copy OK

None of the tracks are present in the AccurateRip database

No errors occurred

End of status report
 
REM ACCURATERIPID 002086b9-015df821-b9102a0eREM GENRE "Soundtrack"REM DATE 1997REM DISCID B9102A0EREM COMMENT "ExactAudioCopy v0.99pb4"PERFORMER "John Williams"TITLE "The Lost World: Jurassic Park"FILE "01 - The Lost World.flac" WAVE TRACK 01 AUDIO TITLE "The Lost World" PERFORMER "John Williams" INDEX 01 00:00:00FILE "02 - The Island Prologue.flac" WAVE TRACK 02 AUDIO TITLE "The Island Prologue" PERFORMER "John Williams" INDEX 01 00:00:00FILE "03 - Malcolm's Journey.flac" WAVE TRACK 03 AUDIO TITLE "Malcolm's Journey" PERFORMER "John Williams" INDEX 01 00:00:00FILE "04 - The Hunt.flac" WAVE TRACK 04 AUDIO TITLE "The Hunt" PERFORMER "John Williams" INDEX 01 00:00:00FILE "05 - The Trek.flac" WAVE TRACK 05 AUDIO TITLE "The Trek" PERFORMER "John Williams" INDEX 01 00:00:00FILE "06 - Finding Camp Jurassic.flac" WAVE TRACK 06 AUDIO TITLE "Finding Camp Jurassic" PERFORMER "John Williams" INDEX 01 00:00:00FILE "07 - Rescuing Sarah.flac" WAVE TRACK 07 AUDIO TITLE "Rescuing Sarah" PERFORMER "John Williams" INDEX 01 00:00:00FILE "08 - Hammond's Plan.flac" WAVE TRACK 08 AUDIO TITLE "Hammond's Plan" PERFORMER "John Williams" INDEX 01 00:00:00FILE "09 - The Raptors Appear.flac" WAVE TRACK 09 AUDIO TITLE "The Raptors Appear" PERFORMER "John Williams" INDEX 01 00:00:00FILE "10 - The Compys Dine.flac" WAVE TRACK 10 AUDIO TITLE "The Compys Dine" PERFORMER "John Williams" INDEX 01 00:00:00FILE "11 - The Stegosaurus.flac" WAVE TRACK 11 AUDIO TITLE "The Stegosaurus" PERFORMER "John Williams" INDEX 01 00:00:00FILE "12 - Ludlow's Demise.flac" WAVE TRACK 12 AUDIO TITLE "Ludlow's Demise" PERFORMER "John Williams" INDEX 01 00:00:00FILE "13 - Visitor in San Diego.flac" WAVE TRACK 13 AUDIO TITLE "Visitor in San Diego" PERFORMER "John Williams" INDEX 01 00:00:00FILE "14 - Finale and Jurassic Park Theme.flac" WAVE TRACK 14 AUDIO TITLE "Finale and Jurassic Park Theme" PERFORMER "John Williams" INDEX 01 00:00:00
 
[Verification date: 2.1.10 22:30:2][Disc ID: 002086b9-015df821-b9102a0e]Track [ CRC ] Status 01 [cccdefcb] (46/46) Accurately ripped 02 [7ba54d94] (46/46) Accurately ripped 03 [5a20db5c] (46/46) Accurately ripped 04 [6b414e6b] (46/46) Accurately ripped 05 [f88fa778] (45/45) Accurately ripped 06 [a0ebaf9b] (46/46) Accurately ripped 07 [253b077d] (45/45) Accurately ripped 08 [899ca64d] (47/47) Accurately ripped 09 [fc196ffb] (46/46) Accurately ripped 10 [fe6353f7] (45/45) Accurately ripped 11 [fcaa5003] (45/45) Accurately ripped 12 [2fb703e5] (46/46) Accurately ripped 13 [8aa5acf0] (45/45) Accurately ripped 14 [7d29b5f6] (31/44) Accurately ripped

Track [ CRC32 ] [W/O NULL] -- [9518D13E] [6D173086] 01 [241506ED] [305F7CCD] 02 [EB4B8571] [32F54ABE] 03 [554412E4] [34332C6C] 04 [977E47AB] [FC7CB3C9] 05 [EE81657F] [4A040856] 06 [4815B9E7] [24D1AC0F] 07 [515F9393] [FFD46AB7] 08 [B0568DF7] [63614DAE] 09 [B577E0A2] [30C8FD0E] 10 [4971E416] [5E7E12C2] 11 [A947D81F] [C0EA1CA9] 12 [BEB2BAC0] [84787BDB] 13 [C1911E83] [FA48663E] 14 [C3012B3B] [8E9463D6]
01. Don Davis — Isla Sorna Sailing Situation 4:23
02.
Don Davis — The Dinosaur Fly-By 2:15
03.
Don Davis — Cooper's Last Stand 2:02
04.
Don Davis — The Raptor Room 2:36
05.
Don Davis — Raptor Repartee 3:06
06.
Don Davis — Tree People 2:04
07.
Don Davis — Pteranodon Habitat 3:04
08.
Don Davis — Tiny Pecking Pteranodons 3:38
09.
Don Davis — Billy Oblivion 2:51
10.
Don Davis — Brachiosaurus on the Bank 2:07
11.
Don Davis — Nash Calling 3:38
12.
Don Davis — Bone Man Ben 7:20
13.
Don Davis — Frenzy Fuselage 4:02
14.
Don Davis — Clash of Extinction 1:43
15.
Don Davis — The Hat Returns / End Credits 5:10
16.
Randy Newman — Big Hat, No Cattle 4:24
Издатель диска
: Decca Universal (США, 2001)
 
Exact Audio Copy V0.99 prebeta 4 from 23. January 2008

EAC extraction logfile from 25. February 2009, 18:44

Don Davis / Jurassic Park III

Used drive : TSSTcorpDVD-ROM TS-H352C Adapter: 1 ID: 1

Read mode : SecureUtilize accurate stream : YesDefeat audio cache : YesMake use of C2 pointers : No

Read offset correction : 6Overread into Lead-In and Lead-Out : NoFill up missing offset samples with silence : YesDelete leading and trailing silent blocks : NoNull samples used in CRC calculations : YesUsed interface : Installed external ASPI interfaceGap handling : Appended to previous track

Used output format : User Defined EncoderSelected bitrate : 192 kBit/sQuality : HighAdd ID3 tag : NoCommand line compressor : C:\Program Files\FLAC\flac.exeAdditional command line options : -8 -A tukey(0.25) -A gauss(0.1875) -b 4096 -V -T "artist=%a" -T "title=%t" -T "album=%g" -T "date=%y" -T "tracknumber=%n" -T "genre=%m" %s --sector-align

TOC of the extracted CD

Track | Start | Length | Start sector | End sector --------------------------------------------------------- 1 | 0:00.00 | 4:23.29 | 0 | 19753 2 | 4:23.29 | 2:15.14 | 19754 | 29892 3 | 6:38.43 | 2:01.73 | 29893 | 39040 4 | 8:40.41 | 2:35.74 | 39041 | 50739 5 | 11:16.40 | 3:06.23 | 50740 | 64712 6 | 14:22.63 | 2:04.07 | 64713 | 74019 7 | 16:26.70 | 3:04.09 | 74020 | 87828 8 | 19:31.04 | 3:38.03 | 87829 | 104181 9 | 23:09.07 | 2:51.18 | 104182 | 117024 10 | 26:00.25 | 2:07.37 | 117025 | 126586 11 | 28:07.62 | 3:38.25 | 126587 | 142961 12 | 31:46.12 | 7:20.32 | 142962 | 175993 13 | 39:06.44 | 4:01.50 | 175994 | 194118 14 | 43:08.19 | 1:42.54 | 194119 | 201822 15 | 44:50.73 | 5:10.13 | 201823 | 225085 16 | 50:01.11 | 4:24.31 | 225086 | 244916 17 | 56:57.42 | 15:23.66 | 256317 | 325607

Track 1

Filename N:\Music\Jurassic Park III\01 - Isla Sorna Sailing Situation.wav

Pre-gap length 0:00:02.00

Peak level 97.7 % Track quality 100.0 % Test CRC F52FEFFB Copy CRC F52FEFFB Copy OK

Track 2

Filename N:\Music\Jurassic Park III\02 - The Dinosaur Fly-By.wav

Pre-gap length 0:00:02.00

Peak level 97.7 % Track quality 100.0 % Test CRC EFA8B670 Copy CRC EFA8B670 Copy OK

Track 3

Filename N:\Music\Jurassic Park III\03 - Cooper's Last Stand.wav

Pre-gap length 0:00:02.00

Peak level 97.7 % Track quality 100.0 % Test CRC DDB2FE03 Copy CRC DDB2FE03 Copy OK

Track 4

Filename N:\Music\Jurassic Park III\04 - The Raptor Room.wav

Pre-gap length 0:00:02.00

Peak level 97.7 % Track quality 100.0 % Test CRC D8BC971D Copy CRC D8BC971D Copy OK

Track 5

Filename N:\Music\Jurassic Park III\05 - Raptor Repartee.wav

Pre-gap length 0:00:02.00

Peak level 100.0 % Track quality 99.9 % Test CRC 21C618BB Copy CRC 21C618BB Copy OK

Track 6

Filename N:\Music\Jurassic Park III\06 - Tree People.wav

Pre-gap length 0:00:02.00

Peak level 84.2 % Track quality 100.0 % Test CRC EEE18C4D Copy CRC EEE18C4D Copy OK

Track 7

Filename N:\Music\Jurassic Park III\07 - Pteranodon Habitat.wav

Pre-gap length 0:00:02.00

Peak level 97.7 % Track quality 100.0 % Test CRC 90C523E7 Copy CRC 90C523E7 Copy OK

Track 8

Filename N:\Music\Jurassic Park III\08 - Tiny Pecking Pteranodons.wav

Pre-gap length 0:00:02.00

Peak level 97.7 % Track quality 100.0 % Test CRC E7407245 Copy CRC E7407245 Copy OK

Track 9

Filename N:\Music\Jurassic Park III\09 - Billy Oblivion.wav

Pre-gap length 0:00:02.00

Peak level 97.7 % Track quality 100.0 % Test CRC 2F41F0FF Copy CRC 2F41F0FF Copy OK

Track 10

Filename N:\Music\Jurassic Park III\10 - Brachiosaurus On The Bank.wav

Pre-gap length 0:00:02.00

Peak level 97.7 % Track quality 99.9 % Test CRC A6A0521D Copy CRC A6A0521D Copy OK

Track 11

Filename N:\Music\Jurassic Park III\11 - Nash Calling.wav

Pre-gap length 0:00:02.00

Peak level 97.7 % Track quality 100.0 % Test CRC AA3353A1 Copy CRC AA3353A1 Copy OK

Track 12

Filename N:\Music\Jurassic Park III\12 - Bone Man Ben.wav

Pre-gap length 0:00:02.00

Peak level 97.7 % Track quality 100.0 % Test CRC 24E251CE Copy CRC 24E251CE Copy OK

Track 13

Filename N:\Music\Jurassic Park III\13 - Frenzy Fuselage.wav

Pre-gap length 0:00:02.00

Peak level 97.7 % Track quality 100.0 % Test CRC 198F5C77 Copy CRC 198F5C77 Copy OK

Track 14

Filename N:\Music\Jurassic Park III\14 - Clash Of Extinction.wav

Pre-gap length 0:00:02.00

Peak level 97.7 % Track quality 100.0 % Test CRC 07FEF943 Copy CRC 07FEF943 Copy OK

Track 15

Filename N:\Music\Jurassic Park III\15 - The Hat Returns , End Credits.wav

Pre-gap length 0:00:02.00

Peak level 97.7 % Track quality 100.0 % Test CRC F4B8A060 Copy CRC F4B8A060 Copy OK

Track 16

Filename N:\Music\Jurassic Park III\16 - Big Hat, No Cattle.wav

Pre-gap length 0:00:02.00

Peak level 77.6 % Track quality 100.0 % Test CRC 13FA1A88 Copy CRC 13FA1A88 Copy OK

No errors occurred

End of status report
 
REM ACCURATERIPID 001d2545-01646129-f90d5911REM GENRE "Soundtrack"REM DATE 2001REM DISCID F910F511REM COMMENT "ExactAudioCopy v0.99pb4"PERFORMER "Don Davis"TITLE "Jurassic Park III"FILE "01 - Isla Sorna Sailing Situation.flac" WAVE TRACK 01 AUDIO TITLE "Isla Sorna Sailing Situation" PERFORMER "Don Davis" INDEX 01 00:00:00 TRACK 02 AUDIO TITLE "The Dinosaur Fly-By" PERFORMER "Don Davis" INDEX 00 04:21:29FILE "02 - The Dinosaur Fly-By.flac" WAVE INDEX 01 00:00:00 TRACK 03 AUDIO TITLE "Cooper's Last Stand" PERFORMER "Don Davis" INDEX 00 02:13:14FILE "03 - Cooper's Last Stand.flac" WAVE INDEX 01 00:00:00 TRACK 04 AUDIO TITLE "The Raptor Room" PERFORMER "Don Davis" INDEX 00 01:59:73FILE "04 - The Raptor Room.flac" WAVE INDEX 01 00:00:00 TRACK 05 AUDIO TITLE "Raptor Repartee" PERFORMER "Don Davis" INDEX 00 02:33:74FILE "05 - Raptor Repartee.flac" WAVE INDEX 01 00:00:00 TRACK 06 AUDIO TITLE "Tree People" PERFORMER "Don Davis" INDEX 00 03:04:23FILE "06 - Tree People.flac" WAVE INDEX 01 00:00:00 TRACK 07 AUDIO TITLE "Pteranodon Habitat" PERFORMER "Don Davis" INDEX 00 02:02:07FILE "07 - Pteranodon Habitat.flac" WAVE INDEX 01 00:00:00 TRACK 08 AUDIO TITLE "Tiny Pecking Pteranodons" PERFORMER "Don Davis" INDEX 00 03:02:09FILE "08 - Tiny Pecking Pteranodons.flac" WAVE INDEX 01 00:00:00 TRACK 09 AUDIO TITLE "Billy Oblivion" PERFORMER "Don Davis" INDEX 00 03:36:03FILE "09 - Billy Oblivion.flac" WAVE INDEX 01 00:00:00 TRACK 10 AUDIO TITLE "Brachiosaurus on the Bank" PERFORMER "Don Davis" INDEX 00 02:49:18FILE "10 - Brachiosaurus on the Bank.flac" WAVE INDEX 01 00:00:00 TRACK 11 AUDIO TITLE "Nash Calling" PERFORMER "Don Davis" INDEX 00 02:05:37FILE "11 - Nash Calling.flac" WAVE INDEX 01 00:00:00 TRACK 12 AUDIO TITLE "Bone Man Ben" PERFORMER "Don Davis" INDEX 00 03:36:25FILE "12 - Bone Man Ben.flac" WAVE INDEX 01 00:00:00 TRACK 13 AUDIO TITLE "Frenzy Fuselage" PERFORMER "Don Davis" INDEX 00 07:18:32FILE "13 - Frenzy Fuselage.flac" WAVE INDEX 01 00:00:00 TRACK 14 AUDIO TITLE "Clash of Extinction" PERFORMER "Don Davis" INDEX 00 03:59:50FILE "14 - Clash of Extinction.flac" WAVE INDEX 01 00:00:00 TRACK 15 AUDIO TITLE "The Hat Returns / End Credits" PERFORMER "Don Davis" INDEX 00 01:40:54FILE "15 - The Hat Returns , End Credits.flac" WAVE INDEX 01 00:00:00 TRACK 16 AUDIO TITLE "Big Hat, No Cattle" PERFORMER "Randy Newman" INDEX 00 05:08:13FILE "16 - Randy Newman - Big Hat, No Cattle.flac" WAVE INDEX 01 00:00:00
 
[Verification date: 2.1.10 23:6:36][Disc ID: 001d2545-01646129-f90d5911]CD-Extra data track length 15:23:33 - 15:24:32.Disk not present in database.

Track [ CRC32 ] [W/O NULL] -- [6427552F] [04A1365F] 01 [F52FEFFB] [CB1B29A5] 02 [EFA8B670] [017486EC] 03 [DDB2FE03] [15E3584F] 04 [D8BC971D] [F98AE51C] 05 [21C618BB] [257062D4] 06 [EEE18C4D] [C1566B0B] 07 [90C523E7] [7F841D09] 08 [E7407245] [045F6EEF] 09 [2F41F0FF] [BE841033] 10 [A6A0521D] [66DA98D7] 11 [AA3353A1] [DE633A25] 12 [24E251CE] [835CC3A5] 13 [198F5C77] [7F84BFAA] 14 [07FEF943] [BE28B134] 15 [F4B8A060] [8C7516E0] 16 [13FA1A88] [C79EB4CE]


Трекер:  [ 08-Июл-2011 17:35 ]

  

Скачать .torrent

Размер .torrent файла 32 KB


Размер: 956 MB
Хэш (hash) релиза: a02e2b3970522aca05a49ce8295fa99a99f804d7

Еще никто не оставлял запись к записи скачать торрент Парк Юрского периода: Трилогия Jurassic Park . Будь первым!

!Обратная связь