Скачать через торрент музыку Призрачный гонщик Ghost Rider бесплатно без регистрации torrent

Если у вас наблюдаются проблемы со скриншотами, переходом по ссылками, скачиванием торрентов - проблемы в блокировщике рекламы AdBlock. #хорошегоДня!


Статистика раздачи
Размер:  295 MB   |    Зарегистрирован:  6 лет 9 месяцев   |    .torrent скачан:  57 раз   |   
Раздают:  1  
   
Загрузка...
 
Автор Сообщение

AqvaGen


Призрачный гонщик / Ghost Rider

Жанр: Score
Композитор: Christopher Young
Год выпуска диска: 2007
Производитель диска: Varese Sarabande
Аудио кодек: FLAC
Тип рипа: tracks+.cue
Битрейт аудио: lossless
Продолжительность: 00:58:36

01 - Ghost Rider (03:16)
02 - Blackheart Beat (03:06)
03 - Artistry In Death (04:13)
04 - A Thing For Karen Carpenter (02:00)
05 - Cemetery Dance (05:31)
06 - More Sinister Than Popcorn (05:40)
07 - No Way To Wisdom (02:15)
08 - Chain Chariot (06:18)
09 - Santa Sardonicus (03:36)
10 - Penance Stare (05:26)
11 - San Venganza (03:22)
12 - Blood Signature (02:08)
13 - Serenade To A Daredevil's Devil (01:53)
14 - Nebuchadnezzar Phase (05:52)
15 - The West Was Built On Legends (03:59)

 
Exact Audio Copy V0.99 prebeta 5 from 4. May 2009

EAC extraction logfile from 27. August 2010, 11:04

Christopher Young / Ghost Rider

Used drive : LITE-ON DVDRW SHM-165H6S Adapter: 0 ID: 1

Read mode : SecureUtilize accurate stream : YesDefeat audio cache : YesMake use of C2 pointers : No

Read offset correction : 6Overread into Lead-In and Lead-Out : NoFill up missing offset samples with silence : YesDelete leading and trailing silent blocks : NoNull samples used in CRC calculations : YesUsed interface : Native Win32 interface for Win NT & 2000Gap handling : Appended to previous track

Used output format : User Defined EncoderSelected bitrate : 320 kBit/sQuality : HighAdd ID3 tag : NoCommand line compressor : C:\Program Files (x86)\Exact Audio Copy\Flac\flac.exeAdditional command line options : -V -8 -T "artist=%a" -T "title=%t" -T "album=%g" -T "date=%y" -T "tracknumber=%n" -T "genre=%m" %s

TOC of the extracted CD

Track | Start | Length | Start sector | End sector --------------------------------------------------------- 1 | 0:00.00 | 3:16.36 | 0 | 14735 2 | 3:16.36 | 3:06.04 | 14736 | 28689 3 | 6:22.40 | 4:13.33 | 28690 | 47697 4 | 10:35.73 | 1:59.69 | 47698 | 56691 5 | 12:35.67 | 5:31.13 | 56692 | 81529 6 | 18:07.05 | 5:39.47 | 81530 | 107001 7 | 23:46.52 | 2:15.30 | 107002 | 117156 8 | 26:02.07 | 6:17.70 | 117157 | 145501 9 | 32:20.02 | 3:36.08 | 145502 | 161709 10 | 35:56.10 | 5:26.15 | 161710 | 186174 11 | 41:22.25 | 3:21.59 | 186175 | 201308 12 | 44:44.09 | 2:08.26 | 201309 | 210934 13 | 46:52.35 | 1:52.43 | 210935 | 219377 14 | 48:45.03 | 5:51.59 | 219378 | 245761 15 | 54:36.62 | 3:59.15 | 245762 | 263701

Track 1

Filename E:\EAC Rips\Christopher Young -2007- Ghost Rider\01 - Ghost Rider.wav

Pre-gap length 0:00:02.00

Peak level 95.4 % Track quality 100.0 % Test CRC DA03455E Copy CRC DA03455E Accurately ripped (confidence 6) [88636279] Copy OK

Track 2

Filename E:\EAC Rips\Christopher Young -2007- Ghost Rider\02 - Blackheart Beat.wav

Peak level 95.4 % Track quality 100.0 % Test CRC 2472FCD1 Copy CRC 2472FCD1 Accurately ripped (confidence 6) [307B7837] Copy OK

Track 3

Filename E:\EAC Rips\Christopher Young -2007- Ghost Rider\03 - Artistry In Death.wav

Peak level 95.4 % Track quality 100.0 % Test CRC 2DE13572 Copy CRC 2DE13572 Accurately ripped (confidence 6) [29E14AF9] Copy OK

Track 4

Filename E:\EAC Rips\Christopher Young -2007- Ghost Rider\04 - A Thing For Karen Carpenter.wav

Peak level 29.5 % Track quality 100.0 % Test CRC 3CB547FB Copy CRC 3CB547FB Accurately ripped (confidence 6) [9EE2E205] Copy OK

Track 5

Filename E:\EAC Rips\Christopher Young -2007- Ghost Rider\05 - Cemetery Dance.wav

Peak level 93.7 % Track quality 100.0 % Test CRC 12F61292 Copy CRC 12F61292 Accurately ripped (confidence 6) [811C6665] Copy OK

Track 6

Filename E:\EAC Rips\Christopher Young -2007- Ghost Rider\06 - More Sinister Than Popcorn.wav

Peak level 93.5 % Track quality 100.0 % Test CRC 0DB987E2 Copy CRC 0DB987E2 Accurately ripped (confidence 6) [C11CEC54] Copy OK

Track 7

Filename E:\EAC Rips\Christopher Young -2007- Ghost Rider\07 - No Way To Wisdom.wav

Peak level 56.0 % Track quality 100.0 % Test CRC 1D7335EA Copy CRC 1D7335EA Accurately ripped (confidence 6) [3C6BC4C2] Copy OK

Track 8

Filename E:\EAC Rips\Christopher Young -2007- Ghost Rider\08 - Chain Chariot.wav

Peak level 94.6 % Track quality 100.0 % Test CRC C45FA1E8 Copy CRC C45FA1E8 Accurately ripped (confidence 6) [C444FCFF] Copy OK

Track 9

Filename E:\EAC Rips\Christopher Young -2007- Ghost Rider\09 - Santa Sardonicus.wav

Peak level 95.4 % Track quality 100.0 % Test CRC ACA2C479 Copy CRC ACA2C479 Accurately ripped (confidence 6) [6943ECD1] Copy OK

Track 10

Filename E:\EAC Rips\Christopher Young -2007- Ghost Rider\10 - Penance Stare.wav

Peak level 91.0 % Track quality 100.0 % Test CRC 50828FB8 Copy CRC 50828FB8 Accurately ripped (confidence 6) [4A1C26CB] Copy OK

Track 11

Filename E:\EAC Rips\Christopher Young -2007- Ghost Rider\11 - San Venganza.wav

Peak level 95.4 % Track quality 100.0 % Test CRC 0B2CC1D8 Copy CRC 0B2CC1D8 Accurately ripped (confidence 6) [22A9EA16] Copy OK

Track 12

Filename E:\EAC Rips\Christopher Young -2007- Ghost Rider\12 - Blood Signature.wav

Peak level 81.9 % Track quality 100.0 % Test CRC 8199CD5F Copy CRC 8199CD5F Accurately ripped (confidence 6) [03734010] Copy OK

Track 13

Filename E:\EAC Rips\Christopher Young -2007- Ghost Rider\13 - Serenade To A Daredevil's Devil.wav

Peak level 67.3 % Track quality 99.9 % Test CRC 3D6E0D7F Copy CRC 3D6E0D7F Accurately ripped (confidence 6) [CBF2F8F0] Copy OK

Track 14

Filename E:\EAC Rips\Christopher Young -2007- Ghost Rider\14 - Nebuchadnezzar Phase.wav

Peak level 95.4 % Track quality 100.0 % Test CRC C25641F4 Copy CRC C25641F4 Accurately ripped (confidence 6) [16404F2A] Copy OK

Track 15

Filename E:\EAC Rips\Christopher Young -2007- Ghost Rider\15 - The West Was Built On Legends.wav

Peak level 95.3 % Track quality 100.0 % Test CRC B3197F3E Copy CRC B3197F3E Accurately ripped (confidence 6) [A2D9E621] Copy OK

All tracks accurately ripped

No errors occurred

End of status report
 
REM GENRE SoundtrackREM DATE 2007REM DISCID F60DBC0FREM COMMENT "ExactAudioCopy v0.99pb5"FILE "01 - Ghost Rider.wav" WAVE TRACK 01 AUDIO INDEX 01 00:00:00FILE "02 - Blackheart Beat.wav" WAVE TRACK 02 AUDIO INDEX 01 00:00:00FILE "03 - Artistry In Death.wav" WAVE TRACK 03 AUDIO INDEX 01 00:00:00FILE "04 - A Thing For Karen Carpenter.wav" WAVE TRACK 04 AUDIO INDEX 01 00:00:00FILE "05 - Cemetery Dance.wav" WAVE TRACK 05 AUDIO INDEX 01 00:00:00FILE "06 - More Sinister Than Popcorn.wav" WAVE TRACK 06 AUDIO INDEX 01 00:00:00FILE "07 - No Way To Wisdom.wav" WAVE TRACK 07 AUDIO INDEX 01 00:00:00FILE "08 - Chain Chariot.wav" WAVE TRACK 08 AUDIO INDEX 01 00:00:00FILE "09 - Santa Sardonicus.wav" WAVE TRACK 09 AUDIO INDEX 01 00:00:00FILE "10 - Penance Stare.wav" WAVE TRACK 10 AUDIO INDEX 01 00:00:00FILE "11 - San Venganza.wav" WAVE TRACK 11 AUDIO INDEX 01 00:00:00FILE "12 - Blood Signature.wav" WAVE TRACK 12 AUDIO INDEX 01 00:00:00FILE "13 - Serenade To A Daredevil's Devil.wav" WAVE TRACK 13 AUDIO INDEX 01 00:00:00FILE "14 - Nebuchadnezzar Phase.wav" WAVE TRACK 14 AUDIO INDEX 01 00:00:00FILE "15 - The West Was Built On Legends.wav" WAVE TRACK 15 AUDIO INDEX 01 00:00:00



Трекер:  [ 19-Дек-2010 16:27 ]

  

Скачать .torrent

Размер .torrent файла 13 KB


Размер: 295 MB
Хэш (hash) релиза: e302f0132ca52765867d9d86426078172a818d32

Торренты, похожие на Призрачный гонщик Ghost Rider скачать торрент

Форум Название Автор Размер S L Добавлен
Саундтреки к фильмам и мультфильмам (mp3) ·· (Score) Ghost Rider / Призрачный Гонщик - 2007, MP3, 320Kbps Солнышко 140581129134 MB 0 0 1292265594

21:39

13-Дек-10

bot

Топик был перенесен в форум Саундтреки к фильмам и мультфильмам (lossless)

Перенес AqvaGen

Хотите добавить комментарий к записи скачать торрент Призрачный гонщик Ghost Rider

!Обратная связь