Скачать через торрент музыку Чтец The Reader, Nico Muhly - 2009, WAVPack бесплатно без регистрации torrent

Если у вас наблюдаются проблемы со скриншотами, переходом по ссылками, скачиванием торрентов - проблемы в блокировщике рекламы AdBlock. #хорошегоДня!


Статистика раздачи
Размер:  234 MB   |    Зарегистрирован:  6 лет 9 месяцев   |    .torrent скачан:  38 раз   |   
Раздают:  1  
   
Загрузка...
 
Автор Сообщение

AqvaGen


Чтец / The Reader, Nico Muhly

Жанр: Score
Год выпуска диска: 2009
Аудио кодек: WAVPack
Тип рипа: image+.cue
Битрейт аудио: lossless
Продолжительность: 00:52:51

Трэклист:

1. (00:01:04) Nico Muhly - The Egg
2. (00:02:25) Nico Muhly - Spying
3. (00:02:49) Nico Muhly - The First Bath
4. (00:01:28) Nico Muhly - It's Not Just about You
5. (00:01:04) Nico Muhly - Tram at Dawn
6. (00:02:40) Nico Muhly - You Don't Matter
7. (00:01:49) Nico Muhly - Reading
8. (00:01:38) Nico Muhly - Cycling Holiday
9. (00:02:58) Nico Muhly - Sophie / The Lady with the Little Dog
10. (00:05:19) Nico Muhly - Go Back to Your Friends
11. (00:01:26) Nico Muhly - Not What I Expected
12. (00:02:18) Nico Muhly - Handwriting
13. (00:04:57) Nico Muhly - The Failed Visit
14. (00:01:34) Nico Muhly - Verdict
15. (00:03:37) Nico Muhly - Mail
16. (00:02:37) Nico Muhly - Letters
17. (00:03:41) Nico Muhly - I Have No One Else to Ask
18. (00:02:12) Nico Muhly - Piles of Books
19. (00:06:49) Nico Muhly - Who Was She?
 
Exact Audio Copy V0.99 prebeta 4 from 23. January 2008

EAC extraction logfile from 17. March 2009, 21:05

Unknown Artist / Unknown Title

Used drive : HL-DT-STCD-RW GCE-8523B Adapter: 1 ID: 1

Read mode : SecureUtilize accurate stream : YesDefeat audio cache : YesMake use of C2 pointers : No

Read offset correction : 6Overread into Lead-In and Lead-Out : NoFill up missing offset samples with silence : YesDelete leading and trailing silent blocks : NoNull samples used in CRC calculations : YesUsed interface : Installed external ASPI interface

Used output format : User Defined EncoderSelected bitrate : 320 kBit/sQuality : HighAdd ID3 tag : NoCommand line compressor : C:\Documents and Settings\Ricardo\Mis documentos\Mis archivos recibidos\Codecs\wavpack.exeAdditional command line options : -w "Artist=%a" -w "Album=%g" -w "Year=%y" -w "Genre=%m" -hh -m -t %s %d

TOC of the extracted CD

Track | Start | Length | Start sector | End sector --------------------------------------------------------- 1 | 0:00.00 | 1:06.24 | 0 | 4973 2 | 1:06.24 | 2:27.04 | 4974 | 16002 3 | 3:33.28 | 2:50.31 | 16003 | 28783 4 | 6:23.59 | 1:29.66 | 28784 | 35524 5 | 7:53.50 | 1:05.54 | 35525 | 40453 6 | 8:59.29 | 2:41.64 | 40454 | 52592 7 | 11:41.18 | 1:51.58 | 52593 | 60975 8 | 13:33.01 | 1:40.48 | 60976 | 68523 9 | 15:13.49 | 3:00.31 | 68524 | 82054 10 | 18:14.05 | 5:21.32 | 82055 | 106161 11 | 23:35.37 | 1:28.07 | 106162 | 112768 12 | 25:03.44 | 2:19.44 | 112769 | 123237 13 | 27:23.13 | 4:59.64 | 123238 | 145726 14 | 32:23.02 | 1:35.66 | 145727 | 152917 15 | 33:58.68 | 3:38.20 | 152918 | 169287 16 | 37:37.13 | 2:39.02 | 169288 | 181214 17 | 40:16.15 | 3:42.39 | 181215 | 197903 18 | 43:58.54 | 2:13.45 | 197904 | 207923 19 | 46:12.24 | 6:48.42 | 207924 | 238565

Range status and errors

Selected range

Filename C:\Documents and Settings\Ricardo\Mis documentos\Mi mъsica\Nico Muhly - The reader\Nico Muhly- The reader.wav

Peak level 100.0 % Range quality 100.0 % Copy CRC 80210F67 Copy OK

No errors occurred

End of status report
AUDIOCHECKER v2.0 beta (build 457) - by Dester - opdester@freemail.hu
~~~~~~~~~~~~~~~~~~~~~~~~~~~~~~~~~~
Started at: понедельник, 18. 05. 2009. - 12:03.37
1 file found

1 -===- J:\Emule\Nico Muhly - The reader\Score\Nico Muhly- The reader.wav
Conclusion: this track is CDDA with probability 100%

Finished at: понедельник, 18. 05. 2009. - 12:12.01 (operation time: 0:08.24)
J:\Emule\Nico Muhly - The reader\Score\Nico Muhly- The reader.wav

Checking AccurateRip database

Track ->> Ripping Status ->> ->> [Disc ID: 001ee87f-fb0c6c13]

1 ->> Track not present in database. [01999ba8]
2 ->> Track not present in database. [027e98ae]
3 ->> Track not present in database. [412951fc]
4 ->> Track not present in database. [5f580320]
5 ->> Track not present in database. [26cc9804]
6 ->> Track not present in database. [3dc7cdc5]
7 ->> Track not present in database. [219d7594]
8 ->> Track not present in database. [934ec44e]
9 ->> Track not present in database. [f3477a4f]
10 ->> Track not present in database. [e2ae3304]
11 ->> Track not present in database. [7e23342c]
12 ->> Track not present in database. [307f896d]
13 ->> Track not present in database. [43f7866c]
14 ->> Track not present in database. [fb88feb4]
15 ->> Track not present in database. [6008df71]
16 ->> Track not present in database. [b0e30638]
17 ->> Track not present in database. [325c1148]
18 ->> Track not present in database. [217c96f4]
19 ->> Track not present in database. [ff9b587f]

_______________________

Disc not present in AccurateRip database.


Трекер:  [ 22-Дек-2010 12:52 ]

  

Скачать .torrent

Размер .torrent файла 19 KB


Размер: 234 MB
Хэш (hash) релиза: 7ec52e2fcb50bf97dfa22fba7e5c860f65195934

bot

Топик был перенесен в форум Саундтреки к фильмам и мультфильмам (lossless)

Перенес AqvaGen

Хотите добавить комментарий к записи скачать торрент Чтец The Reader, Nico Muhly - 2009, WAVPack

!Обратная связь