Скачать через торрент музыку Im Your Man - Leonard Cohen - 2006, APE бесплатно без регистрации torrent

Если у вас наблюдаются проблемы со скриншотами, переходом по ссылками, скачиванием торрентов - проблемы в блокировщике рекламы AdBlock. #хорошегоДня!


Статистика раздачи
Размер:  446 MB   |    Зарегистрирован:  6 лет 2 месяца   |    .torrent скачан:  48 раз   |   
Раздают:  1  
   
Загрузка...
 
Автор Сообщение

Galfimbul

avatar Galfimbul


I'm Your Man - Leonard Cohen

Страна: Russia
Жанр: Soundtrack
Год выпуска: 2006
Формат: APE (image + .cue)
Битрейт аудио: lossless
Продолжительность: 1 hour 17 minutes 50 seconds
Трэклист:
01. Martha Wainwright - Tower Of Song (3:46)
02. Teddy Thompson - Tonight Will Be Fine (3:36)
03. Nick Cave - I'm Your Man (4:31)
04. Martha Wainwright With Kate & Anna McGarrigle - Winter Lady (3:21)
05. Beth Orton - Sisters Of Mercy (4:41)
06. Rufus Wainwright - Chelsea Hotel No.2 (3:47)
07. Antony - If It Be Your Will (5:55)
08. Jarvis Cocker - I Can't Forget (3:43)
09. The Handsome Family - Famous Blue Raincoat (5:08)
10. Perla Batalla - Bird On A Wire (6:35)
11. Rufus Wainwright - Everybody Knows (4:30)
12. Martha Wainwright - The Traitor (4:45)
13. Nick Cave, Julie Christensen & Perla Batalla - Suzanne (4:44)
14. Teddy Thompson - The Future (6:51)
15. Perla Batalla & Julie Christensen - Anthem (6:13)
16. U2 & Leonard Cohen - Tower Of Song (5:44)
Доп. информация: Коллекция саундтреков, написанных Леонардом Коэном к фильму "I'm Your Man".
The soundtrack CD features powerful performances of Cohen masterpieces by an outstanding array of today’s top singer-songwriters. The tracks on the CD were recorded live at Hal Willner’s “Came So Far For Beauty: An Evening of Leonard Cohen Songs”, at the Brighton Dome as part of the Brighton Festival 2004 and at the Sydney Opera House as part of the Sydney Festival 2005, except “Tower of Song” featuring Leonard Cohen and U2.
Exact Audio Copy V0.99 prebeta 3 from 28. July 2007
Отчёт EAC об извлечении, выполненном 16. декабря 2007, 1:19
Various / I'm Your Man - Leonard Cohen
Дисковод: ASUS DVD-E616P3 Adapter: 4 ID: 0

Режим чтения : Достоверность
Использование точного потока : Да
Отключение кэша аудио : Нет
Использование указателей C2 : Нет

Коррекция смещения при чтении : 738
Способность читать области Lead-in и Lead-out : Нет
Заполнение пропущенных сэмплов тишиной : Да
Удаление блоков с тишиной в начале и конце : Нет
При вычислениях CRC использовались нулевые сэмплы : Да
Интерфейс : Установленный внешний ASPI-интерфейс

Выходной формат : Monkey's Audio Lossless Encoder v3.99 DLL
Формат сэмплов : Normal Lossless Compression
Смещение при сжатии : 0

TOC извлечённого CD

Трек | Старт | Длительность | Начальный сектор | Конечный сектор
---------------------------------------------------------------------
1 | 0:00.00 | 3:46.34 | 0 | 16983
2 | 3:46.34 | 3:36.14 | 16984 | 33197
3 | 7:22.48 | 4:31.05 | 33198 | 53527
4 | 11:53.53 | 3:21.10 | 53528 | 68612
5 | 15:14.63 | 4:41.57 | 68613 | 89744
6 | 19:56.45 | 3:47.13 | 89745 | 106782
7 | 23:43.58 | 5:55.38 | 106783 | 133445
8 | 29:39.21 | 3:43.17 | 133446 | 150187
9 | 33:22.38 | 5:08.18 | 150188 | 173305
10 | 38:30.56 | 6:35.02 | 173306 | 202932
11 | 45:05.58 | 4:30.61 | 202933 | 223243
12 | 49:36.44 | 4:45.64 | 223244 | 244682
13 | 54:22.33 | 4:44.51 | 244683 | 266033
14 | 59:07.09 | 6:51.41 | 266034 | 296899
15 | 65:58.50 | 6:13.49 | 296900 | 324923
16 | 72:12.24 | 5:44.20 | 324924 | 350743

Характеристики диапазона извлечения и сообщения об ошибках

Выбранный диапазон

Имя файла Z:\torrent\Various - I'm Your Man - Leonard Cohen\Various - I'm Your Man - Leonard Cohen.ape

Пиковый уровень 100.0 %
Качество диапазона 100.0 %
CRC копии B1EEDFA0
Копирование... OK

Ошибок не произошло

AccurateRip: сводка

Трек 1 точность не определена (достоверность 10) [4F513E63], AccurateRip вернул [14833141]
Трек 2 точность не определена (достоверность 11) [036B329B], AccurateRip вернул [ED134E64]
Трек 3 точность не определена (достоверность 11) [DC6622BE], AccurateRip вернул [0F3F8A2F]
Трек 4 точность не определена (достоверность 11) [86FE8C5F], AccurateRip вернул [87223001]
Трек 5 точность не определена (достоверность 11) [5C50C632], AccurateRip вернул [8FCD94F3]
Трек 6 точность не определена (достоверность 11) [2FB69E95], AccurateRip вернул [C171934C]
Трек 7 точность не определена (достоверность 11) [343A7E20], AccurateRip вернул [8C2EED25]
Трек 8 точность не определена (достоверность 11) [5C271430], AccurateRip вернул [9E315BE5]
Трек 9 точность не определена (достоверность 11) [CED64473], AccurateRip вернул [CDA486DC]
Трек 10 точность не определена (достоверность 11) [E568E1FC], AccurateRip вернул [61C33F87]
Трек 11 точность не определена (достоверность 11) [7AEB6ACF], AccurateRip вернул [38C24487]
Трек 12 точность не определена (достоверность 11) [48BD95CB], AccurateRip вернул [7D354E47]
Трек 13 точность не определена (достоверность 11) [F5B30146], AccurateRip вернул [223C3F76]
Трек 14 точность не определена (достоверность 11) [DA9C58A5], AccurateRip вернул [703DC47E]
Трек 15 точность не определена (достоверность 10) [39AF2040], AccurateRip вернул [CCF0162B]
Трек 16 точность не определена (достоверность 11) [42BA3A7B], AccurateRip вернул [77B059A8]

Ни один трек не прошёл проверки на точность
В вашей базе может быть иной вариант штамповки диска
Конец отчёта


Трекер:  [ 08-Июл-2011 17:37 ]

  

Скачать .torrent

Размер .torrent файла 35 KB


Размер: 446 MB
Хэш (hash) релиза: 3c27d8fb9f8fdf525ee4ab5155ad50f7737b411d

Еще никто не оставлял запись к записи скачать торрент Im Your Man - Leonard Cohen - 2006, APE . Будь первым!

!Обратная связь