Скачать через торрент музыку VA - Wild Wild West Дикий дикий Вэст - 1999, APE бесплатно без регистрации torrent

Если у вас наблюдаются проблемы со скриншотами, переходом по ссылками, скачиванием торрентов - проблемы в блокировщике рекламы AdBlock. #хорошегоДня!


Статистика раздачи
Размер:  423 MB   |    Зарегистрирован:  6 лет 2 месяца   |    .torrent скачан:  44 раза   |   
Раздают:  1  
   
Загрузка...
 
Автор Сообщение

Galfimbul

avatar Galfimbul


Wild Wild West / Дикий дикий Вэст

Жанр: Soundtrack
Год выпуска диска: 1999
Производитель диска: США (Европа по лицензии)
Аудио кодек: APE
Тип рипа: image+.cue
Продолжительность: 01:01:41
Трэклист:
1. Wild Wild West - Will Smith
2. Bailamos - Enrique Iglesias
3. Confused - Blackstreet
4. Keep It Movin' - MC Lyte
5. Getting Closer - Tatyana Ali
6. Lucky Day - Tra-Knox
7. Bad Guys Always Die - Dr. Dre & Eminem
8. Mailman - Faith Evans
9. I'm Wanted - Kel Spencer
10. Hero - Breeze
11. Chocolate Form - Neutral
12. I Sparkle - Slick Rick
13. The Best - Guy Listen
14. 8 Minutes To Sunrise - Common
15. Stick Up - Lil' Bow Wow
Exact Audio Copy V0.99 prebeta 4 from 23. January 2008

Отчёт EAC об извлечении, выполненном 10. июля 2009, 21:32

VA / Wild Wild West

Дисковод: TEAC CD-W524E Adapter: 4 ID: 0

Режим чтения : Достоверность
Использование точного потока : Да
Отключение кэша аудио : Да
Использование указателей C2 : Нет

Коррекция смещения при чтении : 686
Способность читать области Lead-in и Lead-out : Нет
Заполнение пропущенных сэмплов тишиной : Да
Удаление блоков с тишиной в начале и конце : Нет
При вычислениях CRC использовались нулевые сэмплы : Да
Интерфейс : Установленный внешний ASPI-интерфейс

Выходной формат : Внутренние WAV-операции
Формат сэмплов : 44.100 Гц; 16 бит; стерео

TOC извлечённого CD

Трек | Старт | Длительность | Начальный сектор | Конечный сектор
---------------------------------------------------------------------
1 | 0:00.00 | 4:08.15 | 0 | 18614
2 | 4:08.15 | 3:38.37 | 18615 | 35001
3 | 7:46.52 | 3:57.68 | 35002 | 52844
4 | 11:44.45 | 4:13.17 | 52845 | 71836
5 | 15:57.62 | 4:11.38 | 71837 | 90699
6 | 20:09.25 | 4:18.05 | 90700 | 110054
7 | 24:27.30 | 4:40.52 | 110055 | 131106
8 | 29:08.07 | 3:26.03 | 131107 | 146559
9 | 32:34.10 | 5:12.20 | 146560 | 169979
10 | 37:46.30 | 4:05.37 | 169980 | 188391
11 | 41:51.67 | 4:11.70 | 188392 | 207286
12 | 46:03.62 | 4:10.68 | 207287 | 226104
13 | 50:14.55 | 3:39.50 | 226105 | 242579
14 | 53:54.30 | 4:32.25 | 242580 | 263004
15 | 58:26.55 | 3:14.52 | 263005 | 277606

Характеристики диапазона извлечения и сообщения об ошибках

Выбранный диапазон

Имя файла G:\cover\VA - Wild Wild West.wav

Пиковый уровень 100.0 %
Качество диапазона 100.0 %
CRC копии B7695301
Копирование... OK

Ошибок не произошло

AccurateRip: сводка

Трек 1 точное извлечение (доверие 4) [B9819463]
Трек 2 точное извлечение (доверие 4) [6660193F]
Трек 3 точное извлечение (доверие 4) [1F493845]
Трек 4 точное извлечение (доверие 4) [890B9EA3]
Трек 5 точное извлечение (доверие 4) [8A9A13DB]
Трек 6 точное извлечение (доверие 4) [3C279F7B]
Трек 7 точное извлечение (доверие 4) [3FC7AF28]
Трек 8 точное извлечение (доверие 4) [FECEF170]
Трек 9 точное извлечение (доверие 4) [DBB1F012]
Трек 10 точное извлечение (доверие 4) [4748FADD]
Трек 11 точное извлечение (доверие 4) [3A9666F6]
Трек 12 точное извлечение (доверие 4) [09C90F59]
Трек 13 точное извлечение (доверие 4) [E7C8F0C1]
Трек 14 точное извлечение (доверие 4) [7F456F7B]
Трек 15 точное извлечение (доверие 4) [F7B7172F]

Все треки извлечены точно

Конец отчёта


Трекер:  [ 08-Июл-2011 17:39 ]

  

Скачать .torrent

Размер .torrent файла 17 KB


Размер: 423 MB
Хэш (hash) релиза: baf85f72d20fceddd1d46ad173a149bcc29ee1fe

Еще никто не оставлял запись к записи скачать торрент VA - Wild Wild West Дикий дикий Вэст - 1999, APE . Будь первым!

!Обратная связь