Скачать через торрент музыку Hot Shots! Горячие головы бесплатно без регистрации torrent

Если у вас наблюдаются проблемы со скриншотами, переходом по ссылками, скачиванием торрентов - проблемы в блокировщике рекламы AdBlock. #хорошегоДня!


Статистика раздачи
Размер:  148 MB   |    Зарегистрирован:  6 лет 2 месяца   |    .torrent скачан:  44 раза   |   
Раздают:  1  
   
Загрузка...
 
Автор Сообщение

Galfimbul

avatar Galfimbul


Hot Shots! / Горячие головы (часть 1) (Sylvester Levay)

Жанр: Score
Год выпуска диска: 1991
Производитель диска: Germany
Аудио кодек: APE
Тип рипа: image+.cue
Битрейт аудио: lossless

Трэклист:
01. "Hot Shots" Main Title (2:39)
02. Sea Maneuvers (1:51)
03. Flash Back (1:46)
04. This Is For You Dad (1:38)
05. Saboteurs (0:35)
06. Enemy Planes (1:03)
07. Topper Returns (1:24)
08. Love Theme (The Fruit Seduction) (2:14)
09. The Take Off (1:45)
10. Rescue / Drive To Hospital (1:04)
11. Father's Theme (0:55)
12. Training Flight (1:39)
13. The Man I Love (2:51)
14. Aerial Combat (1:56)
15. The Man I Love (Reprise) (0:36)
16. The Kiss (0:48)
17. Dream Lover (performed by Dion) (2:40)
 
EAC extraction logfile from 19. June 2006, 12:40 for CDSylvester LeVay / Hot Shots

Used drive : HL-DT-STDVDRAM GSA-H10A Adapter: 0 ID: 0Read mode : Secure with NO C2, accurate stream, disable cacheRead offset correction : 667Overread into Lead-In and Lead-Out : No

Used output format : Internal WAV Routines 44.100 Hz; 16 Bit; Stereo

Other options : Fill up missing offset samples with silence : Yes Delete leading and trailing silent blocks : No Installed external ASPI interface

Range status and errorsSelected range Filename D:\_install_temp_\Sylvester Levay - Hot Shots\Sylvester LeVay - Hot Shots.wav

Peak level 98.8 % Range quality 100.0 % CRC B0F69CD6 Copy OK

No errors occured

End of status report
 
[Verification date: 28.12.2009 13:33:40][Disc ID: 0011493f-00d751c4-d6067211]Pregap length 00:00:32.Track [ CRC ] Status 01 [0904e0c2] (02/02) Accurately ripped as in pressing(s) #1 02 [595c56c5] (02/02) Accurately ripped as in pressing(s) #1 03 [b1c5f621] (02/02) Accurately ripped as in pressing(s) #1 04 [17f6373c] (02/02) Accurately ripped as in pressing(s) #1 05 [9e5951bf] (02/02) Accurately ripped as in pressing(s) #1 06 [e4edd3a8] (02/02) Accurately ripped as in pressing(s) #1 07 [d175cae3] (02/02) Accurately ripped as in pressing(s) #1 08 [5244ae97] (02/02) Accurately ripped as in pressing(s) #1 09 [9ae010fd] (02/02) Accurately ripped as in pressing(s) #1 10 [8ae1a7b8] (02/02) Accurately ripped as in pressing(s) #1 11 [b78b1c97] (02/02) Accurately ripped as in pressing(s) #1 12 [9a331fa1] (02/02) Accurately ripped as in pressing(s) #1 13 [c71cd683] (02/02) Accurately ripped as in pressing(s) #1 14 [79d1768d] (02/02) Accurately ripped as in pressing(s) #1 15 [0defede0] (02/02) Accurately ripped as in pressing(s) #1 16 [b64e505d] (02/02) Accurately ripped as in pressing(s) #1 17 [235e7883] (02/02) Accurately ripped as in pressing(s) #1

Track [ CRC32 ] [W/O NULL] [ LOG ] -- [B0F69CD6] [6D385A91] CRC32 01 [F8DBBBBF] [4BC70A64] 02 [76432049] [B049BF8B] 03 [F2067CA8] [78D152A1] 04 [8E684FDB] [9AE88598] 05 [3A668EF6] [FDC61D59] 06 [5BA1249E] [D4FF8937] 07 [AFB146F9] [6768E910] 08 [F240CA88] [086D311E] 09 [6033B29A] [4C90054D] 10 [0BFC9E71] [3BFDCD67] 11 [9F459EB6] [A4B28EDE] 12 [992F3399] [9ECB3BC4] 13 [E613A4FF] [212BF787] 14 [CC4C77BC] [BD9BD854] 15 [F5303CD9] [B5A59491] 16 [648EF692] [195BF6A7] 17 [20AAA4E7] [D13C5E0F]


Трекер:  [ 08-Июл-2011 17:41 ]

  

Скачать .torrent

Размер .torrent файла 12 KB


Размер: 148 MB
Хэш (hash) релиза: 352e109b01cf3c70cdc883008f1cbaeca204c822

Торренты, похожие на Hot Shots! Горячие головы скачать торрент

Форум Название Автор Размер S L Добавлен
Саундтреки к фильмам и мультфильмам (mp3) ·· (Score) Горячие головы 2 / Hot Shots! Part Deux (by Basil Poledouris) - 1993, MP3, 320 kbps Phoenix 7649827073 MB 0 0 1292268221

22:23

13-Дек-10

Еще никто не оставлял запись к записи скачать торрент Hot Shots! Горячие головы . Будь первым!

!Обратная связь