Скачать через торрент музыку Фирма The Firm бесплатно без регистрации torrent

Если у вас наблюдаются проблемы со скриншотами, переходом по ссылками, скачиванием торрентов - проблемы в блокировщике рекламы AdBlock. #хорошегоДня!


Статистика раздачи
Размер:  237 MB   |    Зарегистрирован:  6 лет 2 месяца   |    .torrent скачан:  45 раз   |   
Раздают:  1  
   
Загрузка...
 
Автор Сообщение

Galfimbul

avatar Galfimbul


Dave Grusin - The Firm

Жанр: Score/Pop/Rock/Adult Alternative/Progressive Country
Год выпуска диска: 1993
Производитель диска: ?? MCA/GRP (MCD-2007)
Аудио кодек: FLAC
Тип рипа: tracks+.cue
Битрейт аудио: lossless
Продолжительность: 49:42
Источник: Собственные рипы

Треклист:

1. The Firm - Main Title - 3:48
2. Stars on the Water - 3:15
3. Mitch & Abby - 2:22
4. M-O-N-E-Y - 3:15
5. Memphis Stomp - 3:36
6. Never Mind - 3:42
7. Ray's Blues - 4:33
8. Dance Class - 5:46
9. The Plan - 4:43
10. Blues: The Death of Love & Trust - 3:11
11. Start It Up - 3:43
12. Mud Island Chase - 3:53
13. How Could You Lose Me? - End Title - 3:39

Доп. информация:
 
Exact Audio Copy V0.99 prebeta 5 from 4. May 2009

EAC extraction logfile from 15. May 2009, 2:32

Dave Grusin / The Firm

Used drive : HL-DT-STDVDRAM GSA-4167B Adapter: 0 ID: 3

Read mode : SecureUtilize accurate stream : YesDefeat audio cache : YesMake use of C2 pointers : No

Read offset correction : 667Overread into Lead-In and Lead-Out : NoFill up missing offset samples with silence : YesDelete leading and trailing silent blocks : NoNull samples used in CRC calculations : YesUsed interface : Installed external ASPI interfaceGap handling : Appended to previous track

Used output format : User Defined EncoderSelected bitrate : 128 kBit/sQuality : HighAdd ID3 tag : NoCommand line compressor : G:\Program Files\Exact Audio Copy\Encoder\flac.exeAdditional command line options : -V -8 -T "Artist=%a" -T "Title=%t" -T "Album=%g" -T "Year=%y" -T "Tracknumber=%n" -T "Genre=%m" -T "Comment=%e" %s

TOC of the extracted CD

Track | Start | Length | Start sector | End sector --------------------------------------------------------- 1 | 0:00.00 | 3:48.10 | 0 | 17109 2 | 3:48.10 | 3:15.67 | 17110 | 31801 3 | 7:04.02 | 2:21.68 | 31802 | 42444 4 | 9:25.70 | 3:17.65 | 42445 | 57284 5 | 12:43.60 | 3:36.52 | 57285 | 73536 6 | 16:20.37 | 3:41.48 | 73537 | 90159 7 | 20:02.10 | 4:33.67 | 90160 | 110701 8 | 24:36.02 | 5:46.08 | 110702 | 136659 9 | 30:22.10 | 4:43.52 | 136660 | 157936 10 | 35:05.62 | 3:13.45 | 157937 | 172456 11 | 38:19.32 | 3:48.05 | 172457 | 189561 12 | 42:07.37 | 3:53.10 | 189562 | 207046 13 | 46:00.47 | 3:41.58 | 207047 | 223679

Track 1

Filename F:\WAV\01 - The Firm - Main Title.wav

Pre-gap length 0:00:02.00

Peak level 99.7 % Track quality 99.9 % Test CRC 015C67BC Copy CRC 015C67BC Track not present in AccurateRip database Copy OK

Track 2

Filename F:\WAV\02 - Stars on the Water.wav

Peak level 99.7 % Track quality 99.9 % Test CRC DBAF4D44 Copy CRC DBAF4D44 Track not present in AccurateRip database Copy OK

Track 3

Filename F:\WAV\03 - Mitch & Abby.wav

Pre-gap length 0:00:00.01

Peak level 68.3 % Track quality 100.0 % Test CRC 0D96D17A Copy CRC 0D96D17A Track not present in AccurateRip database Copy OK

Track 4

Filename F:\WAV\04 - M-O-N-E-Y.wav

Pre-gap length 0:00:00.01

Peak level 99.7 % Track quality 100.0 % Test CRC B7F527D5 Copy CRC B7F527D5 Track not present in AccurateRip database Copy OK

Track 5

Filename F:\WAV\05 - Memphis Stomp.wav

Pre-gap length 0:00:00.01

Peak level 99.7 % Track quality 100.0 % Test CRC 58959F05 Copy CRC 58959F05 Cannot be verified as accurate (confidence 1) [8FC1D1DD], AccurateRip returned [20E884A6] Copy OK

Track 6

Filename F:\WAV\06 - Never Mind.wav

Pre-gap length 0:00:01.06

Peak level 95.0 % Track quality 100.0 % Test CRC 487E4F53 Copy CRC 487E4F53 Track not present in AccurateRip database Copy OK

Track 7

Filename F:\WAV\07 - Ray's Blues.wav

Pre-gap length 0:00:00.01

Peak level 99.7 % Track quality 100.0 % Test CRC EF454BD8 Copy CRC EF454BD8 Track not present in AccurateRip database Copy OK

Track 8

Filename F:\WAV\08 - Dance Class.wav

Pre-gap length 0:00:00.01

Peak level 83.9 % Track quality 100.0 % Test CRC 30DC9FCD Copy CRC 30DC9FCD Track not present in AccurateRip database Copy OK

Track 9

Filename F:\WAV\09 - The Plan.wav

Pre-gap length 0:00:00.01

Peak level 99.7 % Track quality 100.0 % Test CRC 7B23B4DB Copy CRC 7B23B4DB Track not present in AccurateRip database Copy OK

Track 10

Filename F:\WAV\10 - Blues- The Death of Love & Trust.wav

Pre-gap length 0:00:00.01

Peak level 77.7 % Track quality 99.9 % Test CRC C62A9C24 Copy CRC C62A9C24 Track not present in AccurateRip database Copy OK

Track 11

Filename F:\WAV\11 - Start It Up.wav

Pre-gap length 0:00:00.01

Peak level 88.5 % Track quality 100.0 % Test CRC E74455E1 Copy CRC E74455E1 Track not present in AccurateRip database Copy OK

Track 12

Filename F:\WAV\12 - Mud Island Chase.wav

Pre-gap length 0:00:02.06

Peak level 99.7 % Track quality 100.0 % Test CRC F03D6184 Copy CRC F03D6184 Track not present in AccurateRip database Copy OK

Track 13

Filename F:\WAV\13 - How Could You Lose Me - End Title.wav

Pre-gap length 0:00:00.01

Peak level 99.7 % Track quality 100.0 % Test CRC 9C19E399 Copy CRC 9C19E399 Track not present in AccurateRip database Copy OK

1 track(s) could not be verified as accurate12 track(s) not present in the AccurateRip database

No tracks could be verified as accurateYou may have a different pressing from the one(s) in the database

No errors occurred

End of status report


Трекер:  [ 08-Июл-2011 17:41 ]

  

Скачать .torrent

Размер .torrent файла 20 KB


Размер: 237 MB
Хэш (hash) релиза: d5a2c64b531041d96643652aa2951fd9f0bf95fd

Еще никто не оставлял запись к записи скачать торрент Фирма The Firm . Будь первым!

!Обратная связь