Скачать через торрент музыку Горбун из Нотр Дама The Hunchback of Notre Dame бесплатно без регистрации torrent

Если у вас наблюдаются проблемы со скриншотами, переходом по ссылками, скачиванием торрентов - проблемы в блокировщике рекламы AdBlock. #хорошегоДня!


Статистика раздачи
Размер:  295 MB   |    Зарегистрирован:  6 лет 7 месяцев   |    .torrent скачан:  86 раз   |   
Раздают:  1  
   
Загрузка...
 
Автор Сообщение

FRANKS

avatar FRANKS


Горбун из Нотр Дама / The Hunchback of Notre Dame

Жанр: Score
Композитор: Alan Menken
Год выпуска диска: 1996
Страна-производитель диска: USA

Аудио кодек: FLAC (*.flac)
Тип рипа: tracks+.cue
Битрейт аудио: lossless
Продолжительность: 57:21
Источник: what.cd

Треклист:

01. The Bells of Notre Dame
02. Out There
03. Topsy Turvy
04. Humiliation
05. God Help the Outcasts
06. Bell Tower
07. Heaven's Light / Hellfire
08. A Guy Like You
09. Paris Burning
10. The Court of Miracles
11. Sanctuary!
12. And He Shall Smite the Wicked
13. Into the Sunlight
14. The Bells of Notre Dame (Reprise)
15. Someday (feat. All-4-One)
16. God Help the Outcasts (feat. Bette Middler)
 
X Lossless Decoder version 20100918 (122.1)

XLD extraction logfile from 2010-09-18 20:55:05 -0500

Alan Menken / The Hunchback Of Notre Dame

Used drive : MATSHITA DVD-R UJ-846 (revision FQ3T)

Use cdparanoia mode : YES (CDParanoia III 10.2 engine)Disable audio cache : OK for the drive with cache less than 2750KBMake use of C2 pointers : NORead offset correction : 102Max retry count : 100Gap status : Analyzed, Appended

TOC of the extracted CD Track | Start | Length | Start sector | End sector --------------------------------------------------------- 1 | 00:00:00 | 06:24:67 | 0 | 28866 2 | 06:24:67 | 04:25:63 | 28867 | 48804 3 | 10:50:55 | 05:36:30 | 48805 | 74034 4 | 16:27:10 | 01:40:30 | 74035 | 81564 5 | 18:07:40 | 03:44:12 | 81565 | 98376 6 | 21:51:52 | 03:05:23 | 98377 | 112274 7 | 24:57:00 | 05:24:72 | 112275 | 136646 8 | 30:21:72 | 02:54:13 | 136647 | 149709 9 | 33:16:10 | 01:56:20 | 149710 | 158429 10 | 35:12:30 | 01:27:40 | 158430 | 164994 11 | 36:39:70 | 06:02:07 | 164995 | 192151 12 | 42:42:02 | 03:30:50 | 192152 | 207951 13 | 46:12:52 | 02:09:00 | 207952 | 217626 14 | 48:21:52 | 01:11:35 | 217627 | 222986 15 | 49:33:12 | 04:20:60 | 222987 | 242546 16 | 53:53:72 | 03:27:48 | 242547 | 258119

List of alternate offset correction values # | Absolute | Relative | Confidence ------------------------------------------ 1 | -261 | -363 | 12 2 | -303 | -405 | 11 3 | -2067 | -2169 | 5 4 | -282 | -384 | 3

All Tracks Album gain : -1.99 dB Peak : 0.999969

Track 01 Filename : /Users/mwallis/Desktop/Rips/Alan Menken - The Hunchback Of Notre Dame (1996) [FLAC]/01-01 David Ogden Stiers, Paul Kandel & Tony Jay - The Bells Of Notre Dame.flac Pre-gap length : 00:02:00

Track gain : -1.97 dB Peak : 0.999969 CRC32 hash (test run) : 560BB21A CRC32 hash : 560BB21A CRC32 hash (skip zero) : 6638E605 AccurateRip signature : 8A4C7EFA ->Accurately ripped! (confidence 2) Statistics Read error : 0 Skipped (treated as error) : 0 Edge jitter error (maybe fixed) : 0 Atom jitter error (maybe fixed) : 0 Drift error (maybe fixed) : 0 Dropped bytes error (maybe fixed) : 0 Duplicated bytes error (maybe fixed) : 0 Inconsistency in error sectors : 0

Track 02 Filename : /Users/mwallis/Desktop/Rips/Alan Menken - The Hunchback Of Notre Dame (1996) [FLAC]/01-02 Tony Jay & Tom Hulce - Out There.flac

Track gain : -1.85 dB Peak : 0.928467 CRC32 hash (test run) : 65070F34 CRC32 hash : 65070F34 CRC32 hash (skip zero) : C20F39A7 AccurateRip signature : FAB6E3FD ->Accurately ripped! (confidence 2) Statistics Read error : 0 Skipped (treated as error) : 0 Edge jitter error (maybe fixed) : 0 Atom jitter error (maybe fixed) : 0 Drift error (maybe fixed) : 0 Dropped bytes error (maybe fixed) : 0 Duplicated bytes error (maybe fixed) : 0 Inconsistency in error sectors : 0

Track 03 Filename : /Users/mwallis/Desktop/Rips/Alan Menken - The Hunchback Of Notre Dame (1996) [FLAC]/01-03 Paul Kandel - Topsy Turvy.flac

Track gain : -3.67 dB Peak : 0.990509 CRC32 hash (test run) : 7FE7C3B7 CRC32 hash : 7FE7C3B7 CRC32 hash (skip zero) : 65ADD52F AccurateRip signature : 18315D24 ->Accurately ripped! (confidence 2) Statistics Read error : 0 Skipped (treated as error) : 0 Edge jitter error (maybe fixed) : 0 Atom jitter error (maybe fixed) : 0 Drift error (maybe fixed) : 0 Dropped bytes error (maybe fixed) : 0 Duplicated bytes error (maybe fixed) : 0 Inconsistency in error sectors : 0

Track 04 Filename : /Users/mwallis/Desktop/Rips/Alan Menken - The Hunchback Of Notre Dame (1996) [FLAC]/01-04 Alan Menken - Humiliation.flac

Track gain : -2.53 dB Peak : 0.960480 CRC32 hash (test run) : 6487986A CRC32 hash : 6487986A CRC32 hash (skip zero) : 403AF4B4 AccurateRip signature : 4E270A2A ->Accurately ripped! (confidence 2) Statistics Read error : 0 Skipped (treated as error) : 0 Edge jitter error (maybe fixed) : 0 Atom jitter error (maybe fixed) : 0 Drift error (maybe fixed) : 0 Dropped bytes error (maybe fixed) : 0 Duplicated bytes error (maybe fixed) : 0 Inconsistency in error sectors : 0

Track 05 Filename : /Users/mwallis/Desktop/Rips/Alan Menken - The Hunchback Of Notre Dame (1996) [FLAC]/01-05 Heidi Mollenhauer - God Help the Outcasts.flac

Track gain : 2.27 dB Peak : 0.638580 CRC32 hash (test run) : 4C2FC117 CRC32 hash : 4C2FC117 CRC32 hash (skip zero) : CB5032EB AccurateRip signature : 3CD2861F ->Accurately ripped! (confidence 2) Statistics Read error : 0 Skipped (treated as error) : 0 Edge jitter error (maybe fixed) : 0 Atom jitter error (maybe fixed) : 0 Drift error (maybe fixed) : 0 Dropped bytes error (maybe fixed) : 0 Duplicated bytes error (maybe fixed) : 0 Inconsistency in error sectors : 0

Track 06 Filename : /Users/mwallis/Desktop/Rips/Alan Menken - The Hunchback Of Notre Dame (1996) [FLAC]/01-06 Alan Menken & Stephen Schwartz - The Bell Tower (Score).flac Pre-gap length : 00:01:62

Track gain : 1.75 dB Peak : 0.861847 CRC32 hash (test run) : 8521CB0E CRC32 hash : 8521CB0E CRC32 hash (skip zero) : 69DF5A60 AccurateRip signature : 1194CAA8 ->Accurately ripped! (confidence 2) Statistics Read error : 0 Skipped (treated as error) : 0 Edge jitter error (maybe fixed) : 0 Atom jitter error (maybe fixed) : 0 Drift error (maybe fixed) : 0 Dropped bytes error (maybe fixed) : 0 Duplicated bytes error (maybe fixed) : 0 Inconsistency in error sectors : 0

Track 07 Filename : /Users/mwallis/Desktop/Rips/Alan Menken - The Hunchback Of Notre Dame (1996) [FLAC]/01-07 Tony Jay & Tom Hulce - Heaven's Light/Hellfire.flac Pre-gap length : 00:01:18

Track gain : -1.50 dB Peak : 0.992554 CRC32 hash (test run) : 0F95C3C2 CRC32 hash : 0F95C3C2 CRC32 hash (skip zero) : 37ED7886 AccurateRip signature : C0C4CE14 ->Accurately ripped! (confidence 2) Statistics Read error : 0 Skipped (treated as error) : 0 Edge jitter error (maybe fixed) : 0 Atom jitter error (maybe fixed) : 0 Drift error (maybe fixed) : 0 Dropped bytes error (maybe fixed) : 0 Duplicated bytes error (maybe fixed) : 0 Inconsistency in error sectors : 0

Track 08 Filename : /Users/mwallis/Desktop/Rips/Alan Menken - The Hunchback Of Notre Dame (1996) [FLAC]/01-08 Jason Alexander, Charles Kimbrough, Mary Wickes and Mary Stout - A Guy Like You.flac Pre-gap length : 00:02:00

Track gain : -1.96 dB Peak : 0.957336 CRC32 hash (test run) : 9B390F2F CRC32 hash : 9B390F2F CRC32 hash (skip zero) : A1EAE39F AccurateRip signature : EFD8E2A7 ->Accurately ripped! (confidence 2) Statistics Read error : 0 Skipped (treated as error) : 0 Edge jitter error (maybe fixed) : 0 Atom jitter error (maybe fixed) : 0 Drift error (maybe fixed) : 0 Dropped bytes error (maybe fixed) : 0 Duplicated bytes error (maybe fixed) : 0 Inconsistency in error sectors : 0

Track 09 Filename : /Users/mwallis/Desktop/Rips/Alan Menken - The Hunchback Of Notre Dame (1996) [FLAC]/01-09 Alan Menken - Paris Burning.flac

Track gain : -3.92 dB Peak : 0.971954 CRC32 hash (test run) : 4F8E7533 CRC32 hash : 4F8E7533 CRC32 hash (skip zero) : FB529297 AccurateRip signature : 02A0181B ->Accurately ripped! (confidence 2) Statistics Read error : 0 Skipped (treated as error) : 0 Edge jitter error (maybe fixed) : 0 Atom jitter error (maybe fixed) : 0 Drift error (maybe fixed) : 0 Dropped bytes error (maybe fixed) : 0 Duplicated bytes error (maybe fixed) : 0 Inconsistency in error sectors : 0

Track 10 Filename : /Users/mwallis/Desktop/Rips/Alan Menken - The Hunchback Of Notre Dame (1996) [FLAC]/01-10 Paul Kandel - The Court Of Miracles.flac Pre-gap length : 00:02:40

Track gain : -1.63 dB Peak : 0.976013 CRC32 hash (test run) : 77B74CFA CRC32 hash : 77B74CFA CRC32 hash (skip zero) : 151E1319 AccurateRip signature : E00EEBCE ->Accurately ripped! (confidence 2) Statistics Read error : 0 Skipped (treated as error) : 0 Edge jitter error (maybe fixed) : 0 Atom jitter error (maybe fixed) : 0 Drift error (maybe fixed) : 0 Dropped bytes error (maybe fixed) : 0 Duplicated bytes error (maybe fixed) : 0 Inconsistency in error sectors : 0

Track 11 Filename : /Users/mwallis/Desktop/Rips/Alan Menken - The Hunchback Of Notre Dame (1996) [FLAC]/01-11 Alan Menken - Sanctuary!.flac

Track gain : -2.61 dB Peak : 0.922699 CRC32 hash (test run) : BB5C9E7C CRC32 hash : BB5C9E7C CRC32 hash (skip zero) : 390BE9A9 AccurateRip signature : E9FA728A ->Accurately ripped! (confidence 2) Statistics Read error : 0 Skipped (treated as error) : 0 Edge jitter error (maybe fixed) : 1 Atom jitter error (maybe fixed) : 0 Drift error (maybe fixed) : 0 Dropped bytes error (maybe fixed) : 1 Duplicated bytes error (maybe fixed) : 1 Inconsistency in error sectors : 0

Track 12 Filename : /Users/mwallis/Desktop/Rips/Alan Menken - The Hunchback Of Notre Dame (1996) [FLAC]/01-12 Alan Menken - And He Shall Smite The Wicked.flac Pre-gap length : 00:00:72

Track gain : -1.12 dB Peak : 0.961548 CRC32 hash (test run) : A6B2EC91 CRC32 hash : A6B2EC91 CRC32 hash (skip zero) : 508E511E AccurateRip signature : 86B106FF ->Accurately ripped! (confidence 2) Statistics Read error : 0 Skipped (treated as error) : 0 Edge jitter error (maybe fixed) : 0 Atom jitter error (maybe fixed) : 0 Drift error (maybe fixed) : 0 Dropped bytes error (maybe fixed) : 0 Duplicated bytes error (maybe fixed) : 0 Inconsistency in error sectors : 0

Track 13 Filename : /Users/mwallis/Desktop/Rips/Alan Menken - The Hunchback Of Notre Dame (1996) [FLAC]/01-13 Alan Menken - Into The Sunlight.flac Pre-gap length : 00:01:19

Track gain : -1.35 dB Peak : 0.923859 CRC32 hash (test run) : 9C7FC210 CRC32 hash : 9C7FC210 CRC32 hash (skip zero) : EE18302C AccurateRip signature : 071FBDF4 ->Accurately ripped! (confidence 2) Statistics Read error : 0 Skipped (treated as error) : 0 Edge jitter error (maybe fixed) : 0 Atom jitter error (maybe fixed) : 0 Drift error (maybe fixed) : 0 Dropped bytes error (maybe fixed) : 0 Duplicated bytes error (maybe fixed) : 0 Inconsistency in error sectors : 0

Track 14 Filename : /Users/mwallis/Desktop/Rips/Alan Menken - The Hunchback Of Notre Dame (1996) [FLAC]/01-14 Paul Kandel - The Bells Of Notre Dame (Reprise).flac

Track gain : -4.28 dB Peak : 0.971130 CRC32 hash (test run) : F791FC2B CRC32 hash : F791FC2B CRC32 hash (skip zero) : 4F8D6D6D AccurateRip signature : 4A9A63EF ->Accurately ripped! (confidence 2) Statistics Read error : 0 Skipped (treated as error) : 0 Edge jitter error (maybe fixed) : 0 Atom jitter error (maybe fixed) : 0 Drift error (maybe fixed) : 0 Dropped bytes error (maybe fixed) : 0 Duplicated bytes error (maybe fixed) : 0 Inconsistency in error sectors : 0

Track 15 Filename : /Users/mwallis/Desktop/Rips/Alan Menken - The Hunchback Of Notre Dame (1996) [FLAC]/01-15 All-4-One - Someday.flac Pre-gap length : 00:02:37

Track gain : 1.10 dB Peak : 0.716583 CRC32 hash (test run) : 3C1F1F15 CRC32 hash : 3C1F1F15 CRC32 hash (skip zero) : 0B43D6EF AccurateRip signature : 9F68F398 ->Accurately ripped! (confidence 2) Statistics Read error : 0 Skipped (treated as error) : 0 Edge jitter error (maybe fixed) : 0 Atom jitter error (maybe fixed) : 0 Drift error (maybe fixed) : 0 Dropped bytes error (maybe fixed) : 0 Duplicated bytes error (maybe fixed) : 0 Inconsistency in error sectors : 0

Track 16 Filename : /Users/mwallis/Desktop/Rips/Alan Menken - The Hunchback Of Notre Dame (1996) [FLAC]/01-16 Bette Midler - God Help The Outcasts.flac Pre-gap length : 00:02:45

Track gain : -0.42 dB Peak : 0.699585 CRC32 hash (test run) : 9A8F9965 CRC32 hash : 9A8F9965 CRC32 hash (skip zero) : 5930AD79 AccurateRip signature : 385CF307 ->Accurately ripped! (confidence 2) Statistics Read error : 0 Skipped (treated as error) : 0 Edge jitter error (maybe fixed) : 0 Atom jitter error (maybe fixed) : 0 Drift error (maybe fixed) : 0 Dropped bytes error (maybe fixed) : 0 Duplicated bytes error (maybe fixed) : 0 Inconsistency in error sectors : 0

No errors occurred

End of status report
 
REM GENRE "Pop"REM DATE 1996REM DISCNUMBER 1REM TOTALDISCS 1REM DISCID F80D7110FILE "01 David Ogden Stiers, Paul Kandel & Tony Jay - The Bells Of Notre Dame.wav" WAVE TRACK 01 AUDIO TITLE "The Bells Of Notre Dame" PERFORMER "David Ogden Stiers, Paul Kandel & Tony Jay" SONGWRITER "Alan Menken/Stephen Schwartz" INDEX 01 00:00:00FILE "02 Tony Jay & Tom Hulce - Out There.wav" WAVE TRACK 02 AUDIO TITLE "Out There" PERFORMER "Tony Jay & Tom Hulce" SONGWRITER "Alan Menken/Stephen Schwartz" INDEX 01 00:00:00FILE "03 Paul Kandel - Topsy Turvy.wav" WAVE TRACK 03 AUDIO TITLE "Topsy Turvy" PERFORMER "Paul Kandel" SONGWRITER "Alan Menken/Stephen Schwartz" INDEX 01 00:00:00FILE "04 Alan Menken - Humiliation.wav" WAVE TRACK 04 AUDIO TITLE "Humiliation" PERFORMER "Alan Menken" SONGWRITER "Alan Menken/Stephen Schwartz" INDEX 01 00:00:00FILE "05 Heidi Mollenhauer - God Help the Outcasts.wav" WAVE TRACK 05 AUDIO TITLE "God Help the Outcasts" PERFORMER "Heidi Mollenhauer" SONGWRITER "Alan Menken/Stephen Schwartz" INDEX 01 00:00:00 TRACK 06 AUDIO TITLE "The Bell Tower (Score)" PERFORMER "Alan Menken & Stephen Schwartz" SONGWRITER "Alan Menken/Stephen Schwartz" INDEX 00 03:42:25FILE "06 Alan Menken & Stephen Schwartz - The Bell Tower (Score).wav" WAVE INDEX 01 00:00:00 TRACK 07 AUDIO TITLE "Heaven's Light/Hellfire" PERFORMER "Tony Jay & Tom Hulce" SONGWRITER "Alan Menken/Stephen Schwartz" INDEX 00 03:04:05FILE "07 Tony Jay & Tom Hulce - Heaven's Light Hellfire.wav" WAVE INDEX 01 00:00:00 TRACK 08 AUDIO TITLE "A Guy Like You" PERFORMER "Jason Alexander, Charles Kimbrough, Mary Wickes and Mary Stout" SONGWRITER "Alan Menken/Stephen Schwartz" INDEX 00 05:22:72FILE "08 Jason Alexander, Charles Kimbrough, Mary Wickes and Mary Stout - A Guy Like You.wav" WAVE INDEX 01 00:00:00FILE "09 Alan Menken - Paris Burning.wav" WAVE TRACK 09 AUDIO TITLE "Paris Burning" PERFORMER "Alan Menken" SONGWRITER "Alan Menken/Stephen Schwartz" INDEX 01 00:00:00 TRACK 10 AUDIO TITLE "The Court Of Miracles" PERFORMER "Paul Kandel" SONGWRITER "Alan Menken/Stephen Schwartz" INDEX 00 01:53:55FILE "10 Paul Kandel - The Court Of Miracles.wav" WAVE INDEX 01 00:00:00FILE "11 Alan Menken - Sanctuary!.wav" WAVE TRACK 11 AUDIO TITLE "Sanctuary!" PERFORMER "Alan Menken" SONGWRITER "Alan Menken/Stephen Schwartz" INDEX 01 00:00:00 TRACK 12 AUDIO TITLE "And He Shall Smite The Wicked" PERFORMER "Alan Menken" SONGWRITER "Alan Menken/Stephen Schwartz" INDEX 00 06:01:10FILE "12 Alan Menken - And He Shall Smite The Wicked.wav" WAVE INDEX 01 00:00:00 TRACK 13 AUDIO TITLE "Into The Sunlight" PERFORMER "Alan Menken" SONGWRITER "Alan Menken/Stephen Schwartz" INDEX 00 03:29:31FILE "13 Alan Menken - Into The Sunlight.wav" WAVE INDEX 01 00:00:00FILE "14 Paul Kandel - The Bells Of Notre Dame (Reprise).wav" WAVE TRACK 14 AUDIO TITLE "The Bells Of Notre Dame (Reprise)" PERFORMER "Paul Kandel" SONGWRITER "Alan Menken/Stephen Schwartz" INDEX 01 00:00:00 TRACK 15 AUDIO TITLE "Someday" PERFORMER "All-4-One" SONGWRITER "Alan Menken/Stephen Schwartz" INDEX 00 01:08:73FILE "15 All-4-One - Someday.wav" WAVE INDEX 01 00:00:00 TRACK 16 AUDIO TITLE "God Help The Outcasts" PERFORMER "Bette Midler" SONGWRITER "Alan Menken/Stephen Schwartz" INDEX 00 04:18:15FILE "16 Bette Midler - God Help The Outcasts.wav" WAVE INDEX 01 00:00:00


Трекер:  [ 30-Янв-2011 07:00 ]

  

Скачать .torrent

Размер .torrent файла 13 KB


Размер: 295 MB
Хэш (hash) релиза: e64eeb7f33b8dedb15c698e41cc39be49c68eeb4

Торренты, похожие на Горбун из Нотр Дама The Hunchback of Notre Dame скачать торрент

Форум Название Автор Размер S L Добавлен
Саундтреки к фильмам и мультфильмам (mp3) ·· (Soundtrack) Горбун из Нотр-Дама / The Hunchback of Notre Dame / El Jorobado de Notre Dame (Spanish version) (Español) - 1996, MP3 (tracks), 192 kbps Galfimbul 8244236079 MB 0 0 1496050185

12:29

29-Май-17

Саундтреки к фильмам и мультфильмам (mp3) ·· (Soundtrack) Disney - The Hunchback of Notre Dame / Дисней - Горбун из Нотр-Дама - 1996, MP3, 320 kbps Солнышко 137648995131 MB 0 0 1292266271

21:51

13-Дек-10

bot

Топик был перенесен в форум Саундтреки к фильмам и мультфильмам (lossless)

Перенес FRANKS

Хотите добавить комментарий к записи скачать торрент Горбун из Нотр Дама The Hunchback of Notre Dame

!Обратная связь