Скачать через торрент музыку Bob Marley and the Wailers - Concert in Dortmund 1980 бесплатно без регистрации torrent

Если у вас наблюдаются проблемы со скриншотами, переходом по ссылками, скачиванием торрентов - проблемы в блокировщике рекламы AdBlock. #хорошегоДня!


Статистика раздачи
Размер:  6.82 GB   |    Зарегистрирован:  4 года 5 месяцев   |    .torrent скачан:  75 раз   |   
Раздают:  1  
   
Загрузка...
 
Автор Сообщение

damien1990


Bob Marley and the Wailers - Concert in Dortmund 1980

Страна: Jamaica
Жанр: Reggae
Продолжительность: 01:39:03
Год выпуска: 2013 г.
Описание: Konzertmitschnitt aus der Reihe 'Rockpalast' mit dem legendären Reggaemusiker Bob Marley und seiner Band 'The Wailers'. Aufgezeichnet in der Westfalenhalle in Dortmund am 13.06.1980

Концерт Боба Марли в немецком Дортмунде в 1980 jun13

Трансляция в рамках программы ''Rockpalast''

Треклист: 01. Natural Mystic
02. Rastaman Vibration
03. Revelation
04. I Shot The Sheriff
05. War / No More Trouble
06. Zimbabwe
07. Jamming
08. No Woman, No Cry
09. Zion Train
10. Exodus
11. Redemption Song
12. Could You Be Loved
13. We Can Make It Work
14. Natty Dread
15. Is This Love
16. Get Up Stand Up
17. Coming In From The Cold
18. Lively Up Yourself

Доп. информация: Собственная запись со спутникового канала Einsfestival 2013 mar02

Качество: HDTV720p
Контейнер: TS
Видео кодек: H.264
Аудио кодек: AC3
Видео: Mpeg4 AVC, 1280x720, 16:9, 8790 kbps, 50 fps Prograssive
Аудио: AC3, 384 kbps, 48 kHz, stereo
General
ID : 8900 (0x22C4)
Complete name : D:\Downloads\Bob Marley and the Wailers - Concert in Dortmund 1980.ts
Format : MPEG-TS
File size : 6.82 GiB
Duration : 1h 39mn
Overall bit rate : 9 855 Kbps

Video
ID : 1601 (0x641)
Menu ID : 28396 (0x6EEC)
Format : AVC
Format/Info : Advanced Video Codec
Format profile : High@L3.2
Format settings, CABAC : Yes
Format settings, ReFrames : 4 frames
Codec ID : 27
Duration : 1h 39mn
Bit rate : 8 786 Kbps
Width : 1 280 pixels
Height : 720 pixels
Display aspect ratio : 16:9
Frame rate : 50.000 fps
Color space : YUV
Chroma subsampling : 4:2:0
Bit depth : 8 bits
Scan type : Progressive
Bits/(Pixel*Frame) : 0.191
Stream size : 6.08 GiB (89%)

Audio #1
ID : 1602 (0x642)
Menu ID : 28396 (0x6EEC)
Format : MPEG Audio
Format version : Version 1
Format profile : Layer 2
Codec ID : 3
Duration : 1h 39mn
Bit rate mode : Constant
Bit rate : 192 Kbps
Channel(s) : 2 channels
Sampling rate : 48.0 KHz
Compression mode : Lossy
Delay relative to video : -764ms
Stream size : 136 MiB (2%)
Language : German

Audio #2
ID : 1606 (0x646)
Menu ID : 28396 (0x6EEC)
Format : AC-3
Format/Info : Audio Coding 3
Mode extension : CM (complete main)
Format settings, Endianness : Big
Codec ID : 6
Duration : 1h 39mn
Bit rate mode : Constant
Bit rate : 384 Kbps
Channel(s) : 2 channels
Channel positions : Front: L R
Sampling rate : 48.0 KHz
Bit depth : 16 bits
Compression mode : Lossy
Delay relative to video : -851ms
Stream size : 272 MiB (4%)
Language : German

Text
ID : 1604 (0x644)-100
Menu ID : 28396 (0x6EEC)
Format : Teletext
Language : German

Menu
ID : 1600 (0x640)
Menu ID : 28396 (0x6EEC)
Duration : 1h 39mn
List : 1601 (0x641) (AVC) / 1602 (0x642) (MPEG Audio, German) / 1604 (0x644) () / 1606 (0x646) (AC-3, German)
Language : / German / / German


Трекер:  [ 04-Мар-2013 00:36 ]

  

Скачать .torrent

Размер .torrent файла 17 KB


Размер: 6.82 GB
Хэш (hash) релиза: 18b96e1a666f4a6694f64fc73d97b20cc30045bb

Еще никто не оставлял запись к записи скачать торрент Bob Marley and the Wailers - Concert in Dortmund 1980 . Будь первым!

!Обратная связь