Скачать через торрент музыку Cocktail Коктейль - 1988, FLAC бесплатно без регистрации torrent

Если у вас наблюдаются проблемы со скриншотами, переходом по ссылками, скачиванием торрентов - проблемы в блокировщике рекламы AdBlock. #хорошегоДня!


Статистика раздачи
Размер:  230 MB   |    Зарегистрирован:  6 лет 2 месяца   |    .torrent скачан:  35 раз   |   
Раздают:  1  
   
Загрузка...
 
Автор Сообщение

Galfimbul

avatar Galfimbul


Cocktail / Коктейль
Жанр: Soundtrack
Год выпуска диска: 1988
Производитель диска: USA
Аудио кодек: FLAC
Тип рипа: tracks+.cue
Битрейт аудио: lossless
Продолжительность: 35:21

Трэклист:

01. Starship - Wild Again
02. The Fabulous Thunderbirds - Powerful Stuff
03. Robbie Nevil - Since When
04. Bobby McFerrin - Don't Worry, Be Happy
05. The Georgia Satellites - Hippy Hippy Shake
06. The Beach Boys - Kokomo
07. John Cougar Mellencamp - Rave On
08. Ry Cooder - All Shook Up
09. Preston Smith - Oh, I Love You So
10. Little Richard - Tutti Frutti

Exact Audio Copy V0.99 prebeta 5 from 4. May 2009

EAC extraction logfile from 12. August 2009, 14:12

Various / Cocktail

Used drive : Optiarc DVD RW AD-7170A Adapter: 0 ID: 0

Read mode : Secure
Utilize accurate stream : Yes
Defeat audio cache : Yes
Make use of C2 pointers : No

Read offset correction : 48
Overread into Lead-In and Lead-Out : No
Fill up missing offset samples with silence : Yes
Delete leading and trailing silent blocks : No
Null samples used in CRC calculations : Yes
Used interface : Native Win32 interface for Win NT & 2000
Gap handling : Appended to previous track

Used output format : User Defined Encoder
Selected bitrate : 320 kBit/s
Quality : High
Add ID3 tag : No
Command line compressor : C:\Program Files\Exact Audio Copy\Flac\flac.exe
Additional command line options : -8 -V -T "ARTIST=%a" -T "TITLE=%t" -T "ALBUM=%g" -T "DATE=%y" -T "TRACKNUMBER=%n" -T "GENRE=%m" -T "COMMENT=EAC FLAC -8" %s

TOC of the extracted CD

Track | Start | Length | Start sector | End sector
---------------------------------------------------------
1 | 0:00.00 | 4:40.46 | 0 | 21045
2 | 4:40.46 | 4:43.72 | 21046 | 42342
3 | 9:24.43 | 3:59.25 | 42343 | 60292
4 | 13:23.68 | 4:47.31 | 60293 | 81848
5 | 18:11.24 | 1:45.69 | 81849 | 89792
6 | 19:57.18 | 3:33.12 | 89793 | 105779
7 | 23:30.30 | 3:13.14 | 105780 | 120268
8 | 26:43.44 | 3:30.14 | 120269 | 136032
9 | 30:13.58 | 2:44.33 | 136033 | 148365
10 | 32:58.16 | 2:23.56 | 148366 | 159146

Track 1

Filename K:\SoundTrack_Cocktail\01. Starship – Wild Again.wav

Pre-gap length 0:00:02.00

Peak level 92.8 %
Track quality 100.0 %
Test CRC FD9E4C4E
Copy CRC FD9E4C4E
Copy OK

Track 2

Filename K:\SoundTrack_Cocktail\02. The Fabulous Thunderbirds – Powerful Stuff.wav

Peak level 89.4 %
Track quality 99.9 %
Test CRC 17A47588
Copy CRC 17A47588
Copy OK

Track 3

Filename K:\SoundTrack_Cocktail\03. Robbie Nevil – Since When.wav

Peak level 95.0 %
Track quality 100.0 %
Test CRC 8856CB71
Copy CRC 8856CB71
Copy OK

Track 4

Filename K:\SoundTrack_Cocktail\04. Bobby McFerrin – Don't Worry, Be Happy.wav

Peak level 98.0 %
Track quality 100.0 %
Test CRC 3C098FA0
Copy CRC 3C098FA0
Copy OK

Track 5

Filename K:\SoundTrack_Cocktail\05. The Georgia Satellites – Hippy Hippy Shake.wav

Peak level 87.3 %
Track quality 99.8 %
Test CRC 88F2F878
Copy CRC 88F2F878
Copy OK

Track 6

Filename K:\SoundTrack_Cocktail\06. The Beach Boys – Kokomo.wav

Peak level 85.3 %
Track quality 99.9 %
Test CRC C7A1EAA7
Copy CRC C7A1EAA7
Copy OK

Track 7

Filename K:\SoundTrack_Cocktail\07. John Cougar Mellencamp – Rave On.wav

Peak level 91.3 %
Track quality 100.0 %
Test CRC 9CDAD00E
Copy CRC 9CDAD00E
Copy OK

Track 8

Filename K:\SoundTrack_Cocktail\08. Ry Cooder – All Shook Up.wav

Peak level 92.0 %
Track quality 99.9 %
Test CRC ABDFDF09
Copy CRC ABDFDF09
Copy OK

Track 9

Filename K:\SoundTrack_Cocktail\09. Preston Smith – Oh, I Love You So.wav

Peak level 87.3 %
Track quality 100.0 %
Test CRC A187C7F5
Copy CRC A187C7F5
Copy OK

Track 10

Filename K:\SoundTrack_Cocktail\10. Little Richard – Tutti Frutti.wav

Peak level 76.0 %
Track quality 100.0 %
Test CRC 0388441A
Copy CRC 0388441A
Copy OK

No errors occurred

End of status report


Трекер:  [ 08-Июл-2011 17:42 ]

  

Скачать .torrent

Размер .torrent файла 19 KB


Размер: 230 MB
Хэш (hash) релиза: fc45963cb78756a0c3daab5774d16a6db6744e2e

Еще никто не оставлял запись к записи скачать торрент Cocktail Коктейль - 1988, FLAC . Будь первым!

!Обратная связь