Скачать через торрент музыку xXx: State Of The Union xXx 2: The Next Level бесплатно без регистрации torrent

Если у вас наблюдаются проблемы со скриншотами, переходом по ссылками, скачиванием торрентов - проблемы в блокировщике рекламы AdBlock. #хорошегоДня!


Статистика раздачи
Размер:  407 MB   |    Зарегистрирован:  6 лет 9 месяцев   |    .torrent скачан:  70 раз   |   
Раздают:  1  
   
Загрузка...
 
Автор Сообщение

AqvaGen


xXx: State Of The Union xXx 2: The Next Level / Три икса 2: Новый уровень


Жанр: Soundtrack, Hip-Hop
Год выпуска диска: 2005
Производитель диска: USA
Аудио кодек: FLAC
Тип рипа: tracks+.cue
Битрейт аудио: lossless
Продолжительность: 00:58:55



Треклист:

01. Get XXX'd (3:55)
Performed by J-Kwon feat. Petey Paplo & Ebony Eyez

02. Anybody Seen the PoPo's (3:58)
Performed by Ice Cube

03. Fight the Power (3:30)
Performed by KoRn feat. Xzibit

04. Messiah (4:01)
Performed by Dead Celebrity Status

05. Oh No (3:40)
Performed by Big Boi feat. Killer Mike & Bubba Sparxxx

06. The Payback (2:50)
Performed by P.O.D

07. Dirty Little Thing (3:57)
Performed by Velvet Revolver

08. Wyle Out (3:39)
Performed by Bone Crusher

09. Here we Go (3:41)
Performed by Dirtbag

10. Dis Dat Block (3:36)
Performed by YoungBloodz

11. Lookin 4 U (4:20)
Performed by Chingy feat. G.I.B.

12. The March (3:28)
Performed by Hush

13. MKLVFKWR (3:22)
Performed by Moby feat. Public Enemy

14. Just Like Wylin (3:08)
Performed by Bone Chrusher & Three Days Grace

15. Did it Again (2:52)
Performed by Labba

16. The Good Song (4:56)
Performed by Tonex
 
Exact Audio Copy V0.99 prebeta 4 from 23. January 2008

EAC extraction logfile from 31. March 2009, 22:24

Various / xXx 2 - The Next Level

Used drive : HL-DT-STDVD+-RW GSA-H73N Adapter: 2 ID: 0

Read mode : SecureUtilize accurate stream : YesDefeat audio cache : YesMake use of C2 pointers : No

Read offset correction : 102Overread into Lead-In and Lead-Out : NoFill up missing offset samples with silence : YesDelete leading and trailing silent blocks : NoNull samples used in CRC calculations : YesUsed interface : Native Win32 interface for Win NT & 2000Gap handling : Appended to previous track

Used output format : User Defined EncoderSelected bitrate : 320 kBit/sQuality : HighAdd ID3 tag : NoCommand line compressor : C:\Program Files\Exact Audio Copy\FLAC\FLAC.EXEAdditional command line options : -V -8 -T "artist=%a" -T "title=%t" -T "album=%g" -T "date=%y" -T "tracknumber=%n" -T "genre=%m" %s

TOC of the extracted CD

Track | Start | Length | Start sector | End sector --------------------------------------------------------- 1 | 0:00.00 | 3:54.73 | 0 | 17622 2 | 3:54.73 | 3:58.04 | 17623 | 35476 3 | 7:53.02 | 3:30.24 | 35477 | 51250 4 | 11:23.26 | 4:00.41 | 51251 | 69291 5 | 15:23.67 | 3:40.34 | 69292 | 85825 6 | 19:04.26 | 2:50.29 | 85826 | 98604 7 | 21:54.55 | 3:57.35 | 98605 | 116414 8 | 25:52.15 | 3:38.43 | 116415 | 132807 9 | 29:30.58 | 3:41.35 | 132808 | 149417 10 | 33:12.18 | 3:36.02 | 149418 | 165619 11 | 36:48.20 | 4:19.55 | 165620 | 185099 12 | 41:08.00 | 3:28.10 | 185100 | 200709 13 | 44:36.10 | 3:22.00 | 200710 | 215859 14 | 47:58.10 | 3:07.61 | 215860 | 229945 15 | 51:05.71 | 2:52.32 | 229946 | 242877 16 | 53:58.28 | 4:56.24 | 242878 | 265101

Track 1

Filename C:\Music\xXx 2 - The Next Level\01 - J-Kwon feat. Petey Paplo & Ebony Eyez - Get XXX'd .wav

Pre-gap length 0:00:02.00

Peak level 100.0 % Track quality 99.9 % Test CRC 2E71C272 Copy CRC 2E71C272 Accurately ripped (confidence 2) [6D3D7CD9] Copy OK

Track 2

Filename C:\Music\xXx 2 - The Next Level\02 - Ice Cube - Anybody Seen the PoPo's .wav

Peak level 98.8 % Track quality 99.9 % Test CRC A671BC7F Copy CRC A671BC7F Accurately ripped (confidence 2) [B8E5A82E] Copy OK

Track 3

Filename C:\Music\xXx 2 - The Next Level\03 - KoRn feat. Xzibit - Fight the Power .wav

Pre-gap length 0:00:01.09

Peak level 98.8 % Track quality 100.0 % Test CRC 52E5DE74 Copy CRC 52E5DE74 Accurately ripped (confidence 2) [653DBF0A] Copy OK

Track 4

Filename C:\Music\xXx 2 - The Next Level\04 - Dead Celebrity Status - Messiah .wav

Peak level 98.8 % Track quality 100.0 % Test CRC 018EACDB Copy CRC 018EACDB Accurately ripped (confidence 2) [ADBB8743] Copy OK

Track 5

Filename C:\Music\xXx 2 - The Next Level\05 - Big Boi feat. Killer Mike & Bubba Sparxxx - Oh No .wav

Peak level 98.8 % Track quality 100.0 % Test CRC 908C9DE8 Copy CRC 908C9DE8 Accurately ripped (confidence 2) [F4978C29] Copy OK

Track 6

Filename C:\Music\xXx 2 - The Next Level\06 - P.O.D - The Payback .wav

Peak level 98.8 % Track quality 100.0 % Test CRC 65F0CBAA Copy CRC 65F0CBAA Accurately ripped (confidence 2) [B971F283] Copy OK

Track 7

Filename C:\Music\xXx 2 - The Next Level\07 - Velvet Revolver - Dirty Little Thing .wav

Peak level 98.8 % Track quality 100.0 % Test CRC 8657D469 Copy CRC 8657D469 Accurately ripped (confidence 2) [90DB774D] Copy OK

Track 8

Filename C:\Music\xXx 2 - The Next Level\08 - Bone Crusher - Wyle Out .wav

Peak level 98.8 % Track quality 100.0 % Test CRC 2B38F084 Copy CRC 2B38F084 Accurately ripped (confidence 2) [7248237E] Copy OK

Track 9

Filename C:\Music\xXx 2 - The Next Level\09 - Dirtbag - Here we Go .wav

Peak level 74.9 % Track quality 99.9 % Test CRC 77F6571B Copy CRC 77F6571B Accurately ripped (confidence 2) [7DD37FA6] Copy OK

Track 10

Filename C:\Music\xXx 2 - The Next Level\10 - YoungBloodz - Dis Dat Block .wav

Peak level 98.8 % Track quality 100.0 % Test CRC 7E7B7134 Copy CRC 7E7B7134 Accurately ripped (confidence 2) [DF34058A] Copy OK

Track 11

Filename C:\Music\xXx 2 - The Next Level\11 - Chingy feat. G.I.B. - Lookin 4 U .wav

Peak level 98.8 % Track quality 100.0 % Test CRC 2C7A2273 Copy CRC 2C7A2273 Accurately ripped (confidence 2) [634973BF] Copy OK

Track 12

Filename C:\Music\xXx 2 - The Next Level\12 - Hush - The March .wav

Peak level 98.8 % Track quality 100.0 % Test CRC 4DC6F8BE Copy CRC 4DC6F8BE Accurately ripped (confidence 2) [B758808C] Copy OK

Track 13

Filename C:\Music\xXx 2 - The Next Level\13 - Moby feat. Public Enemy - MKLVFKWR .wav

Pre-gap length 0:00:01.33

Peak level 100.0 % Track quality 100.0 % Test CRC A679769D Copy CRC A679769D Accurately ripped (confidence 2) [978D684C] Copy OK

Track 14

Filename C:\Music\xXx 2 - The Next Level\14 - Bone Chrusher & Three Days Grace - Just Like Wylin .wav

Peak level 98.8 % Track quality 100.0 % Test CRC 4AFE6B33 Copy CRC 4AFE6B33 Accurately ripped (confidence 2) [49DB4D7F] Copy OK

Track 15

Filename C:\Music\xXx 2 - The Next Level\15 - Labba - Did it Again .wav

Peak level 98.8 % Track quality 100.0 % Test CRC 255F5552 Copy CRC 255F5552 Accurately ripped (confidence 2) [214F4119] Copy OK

Track 16

Filename C:\Music\xXx 2 - The Next Level\16 - Tonex - The Good Song .wav

Peak level 100.0 % Track quality 100.0 % Test CRC 94BB1DE4 Copy CRC 94BB1DE4 Accurately ripped (confidence 2) [233BE959] Copy OK

All tracks accurately ripped

No errors occurred

End of status report
 
[Verification date: 24.01.2010 0:34:11][Disc ID: 002283ab-019c86e7-e20dce10]Track [ CRC ] Status 01 [6d3d7cd9] (03/03) Accurately ripped as in pressing(s) #1 02 [b8e5a82e] (03/03) Accurately ripped as in pressing(s) #1 03 [653dbf0a] (03/03) Accurately ripped as in pressing(s) #1 04 [adbb8743] (03/03) Accurately ripped as in pressing(s) #1 05 [f4978c29] (03/03) Accurately ripped as in pressing(s) #1 06 [b971f283] (03/03) Accurately ripped as in pressing(s) #1 07 [90db774d] (03/03) Accurately ripped as in pressing(s) #1 08 [7248237e] (03/03) Accurately ripped as in pressing(s) #1 09 [7dd37fa6] (03/03) Accurately ripped as in pressing(s) #1 10 [df34058a] (03/03) Accurately ripped as in pressing(s) #1 11 [634973bf] (03/03) Accurately ripped as in pressing(s) #1 12 [b758808c] (03/03) Accurately ripped as in pressing(s) #1 13 [978d684c] (03/03) Accurately ripped as in pressing(s) #1 14 [49db4d7f] (03/03) Accurately ripped as in pressing(s) #1 15 [214f4119] (03/03) Accurately ripped as in pressing(s) #1 16 [233be959] (03/03) Accurately ripped as in pressing(s) #1

Track [ CRC32 ] [W/O NULL] [ LOG ] -- [AA2E1718] [8FA7FF06] 01 [2E71C272] [1C097572] CRC32 02 [A671BC7F] [5B9A891E] CRC32 03 [52E5DE74] [75D5D62E] CRC32 04 [018EACDB] [2601D60C] CRC32 05 [908C9DE8] [08210441] CRC32 06 [65F0CBAA] [A24B13EA] CRC32 07 [8657D469] [8554C071] CRC32 08 [2B38F084] [B83EC1ED] CRC32 09 [77F6571B] [11A57277] CRC32 10 [7E7B7134] [D63830C8] CRC32 11 [2C7A2273] [4CFFA1EB] CRC32 12 [4DC6F8BE] [58E55FC8] CRC32 13 [A679769D] [8C2F6BF4] CRC32 14 [4AFE6B33] [E13D8405] CRC32 15 [255F5552] [9CAA41AD] CRC32 16 [94BB1DE4] [6C83FF7A] CRC32
 
AUDIOCHECKER v2.0 beta (build 457) - by Dester - opdester@freemail.hu~~~~~~~~~~~~~~~~~~~~~~~~~~~~~~~~~~-=== DO NOT EDIT THIS FILE! ===-

Path: ...\xXx 2 The Next Level - 2005 - OST [FLAC (tracks+.cue)]

01 -=- 01 - J-Kwon feat. Petey Paplo & Ebony Eyez - Get XXX'd .flac -=- CDDA (100%)02 -=- 02 - Ice Cube - Anybody Seen the PoPo's .flac -=- CDDA (100%)03 -=- 03 - KoRn feat. Xzibit - Fight the Power .flac -=- CDDA (99%)04 -=- 04 - Dead Celebrity Status - Messiah .flac -=- CDDA (100%)05 -=- 05 - Big Boi feat. Killer Mike & Bubba Sparxxx - Oh No .flac -=- CDDA (100%)06 -=- 06 - P.O.D - The Payback .flac -=- CDDA (100%)07 -=- 07 - Velvet Revolver - Dirty Little Thing .flac -=- CDDA (100%)08 -=- 08 - Bone Crusher - Wyle Out .flac -=- CDDA (43%)09 -=- 09 - Dirtbag - Here we Go .flac -=- CDDA (100%)10 -=- 10 - YoungBloodz - Dis Dat Block .flac -=- CDDA (100%)11 -=- 11 - Chingy feat. G.I.B. - Lookin 4 U .flac -=- CDDA (100%)12 -=- 12 - Hush - The March .flac -=- CDDA (99%)13 -=- 13 - Moby feat. Public Enemy - MKLVFKWR .flac -=- CDDA (100%)14 -=- 14 - Bone Chrusher & Three Days Grace - Just Like Wylin .flac -=- CDDA (100%)15 -=- 15 - Labba - Did it Again .flac -=- CDDA (100%)16 -=- 16 - Tonex - The Good Song .flac -=- MPEG (95%)

Summary 90,38% CDDA

93447588

Enjoy!


Трекер:  [ 22-Дек-2010 13:29 ]

  

Скачать .torrent

Размер .torrent файла 18 KB


Размер: 407 MB
Хэш (hash) релиза: c33489c6082c98c2a9faf3b0cf45683037a03c9b

bot

Топик был перенесен в форум Саундтреки к фильмам и мультфильмам (lossless)

Перенес AqvaGen

Хотите добавить комментарий к записи скачать торрент xXx: State Of The Union xXx 2: The Next Level

!Обратная связь