Скачать через торрент музыку Various - Southland Tales бесплатно без регистрации torrent

Если у вас наблюдаются проблемы со скриншотами, переходом по ссылками, скачиванием торрентов - проблемы в блокировщике рекламы AdBlock. #хорошегоДня!


Статистика раздачи
Размер:  467 MB   |    Зарегистрирован:  6 лет 9 месяцев   |    .torrent скачан:  46 раз   |   
Раздают:  1  
   
Загрузка...
 
Автор Сообщение

AqvaGen


Southland Tales
Music From The Motion Picture

Жанр: Soundtrack
Год выпуска диска: 2007
Производитель диска: Milan Records
Аудио кодек: FLAC
Тип рипа: tracks+.cue
Битрейт аудио: lossless
Продолжительность: 1:12:51
Трэклист:
01. Pixies - Wave Of Mutilation (UK Surf Version) 3:02
02. Bertha Tillman - Oh My Angel 2:22
03. Black Rebel Motorcycle Club - Howl (Extended Version) 6:12
04. Moby - Look Back In (Southland Tales Mix) 2:16
05. Waylon Jennings - Me & Bobby McGee 4:41
06. Moby - Chord Sounds 7:27
07. Roger Webb - Lucky Me 3:17
08. Moby - 3 Steps 4:46
09. Big Head Todd & The Monsters - Broken Hearted Savior 5:12
10. Sarah Michelle Gellar, Abbey McBride & ClarKent - Teenage Horniness Is Not A Crime 3:15
11. Moby - Tiny Elephants 3:59
12. Elbow - Forget Myself 5:25
13. Rebekah del Rio & The Section Quartet - The Star Spangled Banner 2:13
14. Jane's Addiction - Three Days (Live Version) 11:48
15. Moby - Memory Gospel 6:57
 
Exact Audio Copy V0.99 prebeta 5 from 4. May 2009

EAC extraction logfile from 28. December 2009, 15:32

Various / Southland Tales

Used drive : PHILIPS SPD2414T Adapter: 3 ID: 0

Read mode : SecureUtilize accurate stream : YesDefeat audio cache : YesMake use of C2 pointers : No

Read offset correction : 6Overread into Lead-In and Lead-Out : NoFill up missing offset samples with silence : YesDelete leading and trailing silent blocks : NoNull samples used in CRC calculations : YesUsed interface : Native Win32 interface for Win NT & 2000Gap handling : Appended to previous track

Used output format : User Defined EncoderSelected bitrate : 320 kBit/sQuality : HighAdd ID3 tag : NoCommand line compressor : C:\Program Files\FLAC\flac.exeAdditional command line options : -V -8 -T "artist=%a" -T "title=%t" -T "album=%g" -T "date=%y" -T "tracknumber=%n" -T "genre=%m" %s

TOC of the extracted CD

Track | Start | Length | Start sector | End sector --------------------------------------------------------- 1 | 0:00.00 | 3:01.63 | 0 | 13637 2 | 3:01.63 | 2:21.49 | 13638 | 24261 3 | 5:23.37 | 6:12.01 | 24262 | 52162 4 | 11:35.38 | 2:16.17 | 52163 | 62379 5 | 13:51.55 | 4:41.32 | 62380 | 83486 6 | 18:33.12 | 7:26.63 | 83487 | 116999 7 | 26:00.00 | 3:16.55 | 117000 | 131754 8 | 29:16.55 | 4:46.17 | 131755 | 153221 9 | 34:02.72 | 5:11.50 | 153222 | 176596 10 | 39:14.47 | 3:15.14 | 176597 | 191235 11 | 42:29.61 | 3:58.72 | 191236 | 209157 12 | 46:28.58 | 5:24.58 | 209158 | 233515 13 | 51:53.41 | 2:13.15 | 233516 | 243505 14 | 54:06.56 | 11:47.52 | 243506 | 296582 15 | 65:54.33 | 6:57.02 | 296583 | 327859

Track 1

Filename I:\eac\(01) Wave of Mutilation (UK Surf Version) - Pixies.wav

Pre-gap length 0:00:02.00

Peak level 98.8 % Track quality 100.0 % Test CRC 2199B59F Copy CRC 2199B59F Cannot be verified as accurate (confidence 2) [D89F7171], AccurateRip returned [E1840367] Copy OK

Track 2

Filename I:\eac\(02) Oh My Angel - Bertha Tillman.wav

Peak level 98.8 % Track quality 100.0 % Test CRC 54226201 Copy CRC 54226201 Cannot be verified as accurate (confidence 2) [1272693D], AccurateRip returned [4F0E41EF] Copy OK

Track 3

Filename I:\eac\(03) Howl (Extended Version) - Black Rebel Motercycle Club.wav

Peak level 88.1 % Track quality 100.0 % Test CRC 12E1C9E7 Copy CRC 12E1C9E7 Cannot be verified as accurate (confidence 2) [347655F0], AccurateRip returned [5FB17B3E] Copy OK

Track 4

Filename I:\eac\(04) Look Back In - Moby.wav

Peak level 93.3 % Track quality 100.0 % Test CRC 2FD5CC32 Copy CRC 2FD5CC32 Cannot be verified as accurate (confidence 2) [4A351EB7], AccurateRip returned [4EA5B723] Copy OK

Track 5

Filename I:\eac\(05) Me & Bobby McGee - Waylon Jennings.wav

Peak level 98.8 % Track quality 100.0 % Test CRC CB042D42 Copy CRC CB042D42 Cannot be verified as accurate (confidence 2) [23EB4EE2], AccurateRip returned [4EE3A158] Copy OK

Track 6

Filename I:\eac\(06) Chord Sounds - Moby.wav

Peak level 98.8 % Track quality 100.0 % Test CRC 201331F3 Copy CRC 201331F3 Cannot be verified as accurate (confidence 2) [9F5A59DF], AccurateRip returned [7C68EB84] Copy OK

Track 7

Filename I:\eac\(07) Lucky Me - Roger Webb.wav

Peak level 98.8 % Track quality 100.0 % Test CRC 1A3111E9 Copy CRC 1A3111E9 Cannot be verified as accurate (confidence 2) [03A0D3FB], AccurateRip returned [3C91BCCC] Copy OK

Track 8

Filename I:\eac\(08) 3 Steps - Moby.wav

Peak level 98.8 % Track quality 99.9 % Test CRC 3C138C4D Copy CRC 3C138C4D Cannot be verified as accurate (confidence 2) [C682CE29], AccurateRip returned [4272A62D] Copy OK

Track 9

Filename I:\eac\(09) Broken Hearted Savior - Big Head Todd & The Monsters.wav

Peak level 93.3 % Track quality 100.0 % Test CRC 8D8CBBBF Copy CRC 8D8CBBBF Cannot be verified as accurate (confidence 2) [ABC9CB52], AccurateRip returned [7022FD41] Copy OK

Track 10

Filename I:\eac\(10) Teen Horniness is Not a Crime - Sarah Michelle Gellar, Abbey McBride, and ClarKent.wav

Peak level 78.5 % Track quality 100.0 % Test CRC 749E20DF Copy CRC 749E20DF Cannot be verified as accurate (confidence 2) [E1A178B2], AccurateRip returned [F7FE3150] Copy OK

Track 11

Filename I:\eac\(11) Tiny Elephants - Moby.wav

Peak level 69.9 % Track quality 100.0 % Test CRC C4DD28C2 Copy CRC C4DD28C2 Cannot be verified as accurate (confidence 2) [D37E36F4], AccurateRip returned [EAA869BD] Copy OK

Track 12

Filename I:\eac\(12) Forget Myself - Elbow.wav

Peak level 83.1 % Track quality 99.9 % Test CRC 18FFCE23 Copy CRC 18FFCE23 Cannot be verified as accurate (confidence 2) [4D409EC2], AccurateRip returned [A08437B4] Copy OK

Track 13

Filename I:\eac\(13) The Star Spangled Banner - Rebekah del Rio & The Section Quartet.wav

Peak level 83.1 % Track quality 100.0 % Test CRC E2FC15D2 Copy CRC E2FC15D2 Cannot be verified as accurate (confidence 2) [49294F09], AccurateRip returned [9B6BC19A] Copy OK

Track 14

Filename I:\eac\(14) Three Days (Live Version) - Jane's Addiction.wav

Peak level 93.3 % Track quality 100.0 % Test CRC 60F498C1 Copy CRC 60F498C1 Cannot be verified as accurate (confidence 2) [B74EBB4C], AccurateRip returned [2AEFF23A] Copy OK

Track 15

Filename I:\eac\(15) Memory Gospel - Moby.wav

Peak level 93.3 % Track quality 100.0 % Test CRC 6F66CB3A Copy CRC 6F66CB3A Cannot be verified as accurate (confidence 2) [47A476B2], AccurateRip returned [1F98FF23] Copy OK

No tracks could be verified as accurateYou may have a different pressing from the one(s) in the database

No errors occurred

End of status report


Трекер:  [ 22-Дек-2010 13:35 ]

  

Скачать .torrent

Размер .torrent файла 20 KB


Размер: 467 MB
Хэш (hash) релиза: f52ee4fe144dcb971ac1368457ff910a667053ac

bot

Топик был перенесен в форум Саундтреки к фильмам и мультфильмам (lossless)

Перенес AqvaGen

Хотите добавить комментарий к записи скачать торрент Various - Southland Tales

!Обратная связь