Скачать через торрент музыку Point of No Return Убийца бесплатно без регистрации torrent

Если у вас наблюдаются проблемы со скриншотами, переходом по ссылками, скачиванием торрентов - проблемы в блокировщике рекламы AdBlock. #хорошегоДня!


Статистика раздачи
Размер:  231 MB   |    Зарегистрирован:  6 лет 7 месяцев   |    .torrent скачан:  49 раз   |   
Раздают:  1  
   
Загрузка...
 
Автор Сообщение

FRANKS

avatar FRANKS


Point of No Return / Убийца (Точка невозврата)
Жанр: Score
Год выпуска диска: 1993
Производитель диска: USA
Аудио кодек: FLAC
Тип рипа: tracks+.cue
Битрейт аудио: lossless
Продолжительность: 45:44

Трэклист:

1. Hans Zimmer - Hate
2. Hans Zimmer - Happy Birthday, Maggie
3. Hans Zimmer - Wedding Bells
4. Hans Zimmer - Hells Kitchen
5. Nina Simone - Here Comes The Sun
6. Nina Simone - I Want a Little Sugar in My Bowl
7. Nina Simone - Feeling Good
8. Nina Simone - Wild is the Wind
9. Nina Simone - Black is the Color of My True Love's Hair
Exact Audio Copy V0.99 prebeta 5 from 4. May 2009

EAC extraction logfile from 5. August 2009, 10:49

Hans Zimmer / Point of No Return

Used drive : Optiarc DVD RW AD-7170A Adapter: 0 ID: 0

Read mode : Secure
Utilize accurate stream : Yes
Defeat audio cache : Yes
Make use of C2 pointers : No

Read offset correction : 48
Overread into Lead-In and Lead-Out : No
Fill up missing offset samples with silence : Yes
Delete leading and trailing silent blocks : No
Null samples used in CRC calculations : Yes
Used interface : Native Win32 interface for Win NT & 2000
Gap handling : Appended to previous track

Used output format : User Defined Encoder
Selected bitrate : 320 kBit/s
Quality : High
Add ID3 tag : No
Command line compressor : C:\Program Files\Exact Audio Copy\Flac\flac.exe
Additional command line options : -8 -V -T "ARTIST=%a" -T "TITLE=%t" -T "ALBUM=%g" -T "DATE=%y" -T "TRACKNUMBER=%n" -T "GENRE=%m" -T "COMMENT=EAC FLAC -8" %s

TOC of the extracted CD

Track | Start | Length | Start sector | End sector
---------------------------------------------------------
1 | 0:00.00 | 7:27.27 | 0 | 33551
2 | 7:27.27 | 5:35.58 | 33552 | 58734
3 | 13:03.10 | 8:05.57 | 58735 | 95166
4 | 21:08.67 | 5:04.08 | 95167 | 117974
5 | 26:13.00 | 3:35.02 | 117975 | 134101
6 | 29:48.02 | 2:33.33 | 134102 | 145609
7 | 32:21.35 | 2:56.07 | 145610 | 158816
8 | 35:17.42 | 6:59.68 | 158817 | 190309
9 | 42:17.35 | 3:26.40 | 190310 | 205799

Track 1

Filename K:\SoundTrack_Point of No Return\ 01. Hans Zimmer – Hate.wav

Pre-gap length 0:00:02.00

Peak level 98.9 %
Track quality 100.0 %
Test CRC 402B5D51
Copy CRC 402B5D51
Copy OK

Track 2

Filename K:\SoundTrack_Point of No Return\ 02. Hans Zimmer – Happy Birthday, Maggie.wav

Peak level 98.9 %
Track quality 100.0 %
Test CRC 3A42C1DA
Copy CRC 3A42C1DA
Copy OK

Track 3

Filename K:\SoundTrack_Point of No Return\ 03. Hans Zimmer – Wedding Bells.wav

Peak level 98.9 %
Track quality 100.0 %
Test CRC C51C299F
Copy CRC C51C299F
Copy OK

Track 4

Filename K:\SoundTrack_Point of No Return\ 04. Hans Zimmer – Hells Kitchen.wav

Peak level 62.2 %
Track quality 100.0 %
Test CRC 40692C16
Copy CRC 40692C16
Copy OK

Track 5

Filename K:\SoundTrack_Point of No Return\ 05. Hans Zimmer – Nina Simone , Here Comes The Sun.wav

Peak level 59.2 %
Track quality 100.0 %
Test CRC 77D77BE9
Copy CRC 77D77BE9
Copy OK

Track 6

Filename K:\SoundTrack_Point of No Return\ 06. Hans Zimmer – Nina Simone , I Want a Little Sugar in My Bowl.wav

Peak level 73.5 %
Track quality 100.0 %
Test CRC B42059E9
Copy CRC B42059E9
Copy OK

Track 7

Filename K:\SoundTrack_Point of No Return\ 07. Hans Zimmer – Nina Simone , Feeling Good.wav

Peak level 98.7 %
Track quality 100.0 %
Test CRC 1F48AF1D
Copy CRC 1F48AF1D
Copy OK

Track 8

Filename K:\SoundTrack_Point of No Return\ 08. Hans Zimmer – Nina Simone , Wild is the Wind.wav

Peak level 100.0 %
Track quality 100.0 %
Test CRC 762A9170
Copy CRC 762A9170
Copy OK

Track 9

Filename K:\SoundTrack_Point of No Return\ 09. Hans Zimmer – Nina Simone , Black is the Color of My True Love's Hair.wav

Peak level 72.9 %
Track quality 99.9 %
Test CRC CEBF2854
Copy CRC CEBF2854
Copy OK

No errors occurred

End of status report



Трекер:  [ 30-Янв-2011 07:37 ]

  

Скачать .torrent

Размер .torrent файла 19 KB


Размер: 231 MB
Хэш (hash) релиза: 8163e9e8614c0d7d7c8ce58fd1fb1dd99143e074

bot

Топик был перенесен в форум Саундтреки к фильмам и мультфильмам (lossless)

Перенес FRANKS

Хотите добавить комментарий к записи скачать торрент Point of No Return Убийца

!Обратная связь