Скачать через торрент музыку Надя Nadja бесплатно без регистрации torrent

Если у вас наблюдаются проблемы со скриншотами, переходом по ссылками, скачиванием торрентов - проблемы в блокировщике рекламы AdBlock. #хорошегоДня!


Статистика раздачи
Размер:  196 MB   |    Зарегистрирован:  6 лет 2 месяца   |    .torrent скачан:  42 раза   |   
Раздают:  1  
   
Загрузка...
 
Автор Сообщение

Galfimbul

avatar Galfimbul


Надя / Nadja
Music by Simon Fisher Turner

Жанр: Score
Год выпуска диска: 1995
Производитель диска: Gyroscope
Аудио кодек: FLAC
Тип рипа: tracks+.cue
Битрейт аудио: lossless
Продолжительность: 00:48:05
Трэклист:
01. Allergy To Sunlight [01:48]
02. Isle Of Spices [03:16]
03. Love, Death, Avoid It [03:44]
04. Lunch At Great Rissington [06:28]
05. No Comfort In The Bloody Shadows [05:31]
06. Orchestrated Gravel [05:38]
07. Pixsmiles [10:59]
08. Stake In The Heart [02:14]
09. The Dead Travel Fast [08:23]
 
Exact Audio Copy V0.99 prebeta 5 from 4. May 2009

EAC extraction logfile from 14. November 2009, 9:44

Simon Fisher Turner / Nadja OST

Used drive : PIONEER DVD-RW DVR-217F Adapter: 3 ID: 0

Read mode : SecureUtilize accurate stream : YesDefeat audio cache : YesMake use of C2 pointers : No

Read offset correction : 96Overread into Lead-In and Lead-Out : NoFill up missing offset samples with silence : YesDelete leading and trailing silent blocks : NoNull samples used in CRC calculations : YesUsed interface : Installed external ASPI interfaceGap handling : Appended to previous track

Used output format : User Defined EncoderSelected bitrate : 768 kBit/sQuality : HighAdd ID3 tag : NoCommand line compressor : C:\Program Files\Exact Audio Copy\FLAC\FLAC.EXEAdditional command line options : -6 -V -T "ARTIST=%a" -T "TITLE=%t" -T "ALBUM=%g" -T "DATE=%y" -T "TRACKNUMBER=%n" -T "GENRE=%m" -T "COMMENT=%e" %s -o %d

TOC of the extracted CD

Track | Start | Length | Start sector | End sector --------------------------------------------------------- 1 | 0:00.00 | 8:23.05 | 0 | 37729 2 | 8:23.05 | 1:48.23 | 37730 | 45852 3 | 10:11.28 | 5:31.30 | 45853 | 70707 4 | 15:42.58 | 3:16.68 | 70708 | 85475 5 | 18:59.51 | 10:59.24 | 85476 | 134924 6 | 29:59.00 | 2:14.46 | 134925 | 145020 7 | 32:13.46 | 6:28.44 | 145021 | 174164 8 | 38:42.15 | 3:44.74 | 174165 | 191038 9 | 42:27.14 | 5:38.58 | 191039 | 216446

Track 1

Filename D:\lless\Simon Fisher Turner - Nadja OST\The Dead Travel Fast.wav

Pre-gap length 0:00:02.00

Peak level 81.6 % Track quality 99.9 % Test CRC 4DE1BCCB Copy CRC 4DE1BCCB Track not present in AccurateRip database Copy OK

Track 2

Filename D:\lless\Simon Fisher Turner - Nadja OST\Allergy To Sunlight.wav

Peak level 77.9 % Track quality 100.0 % Test CRC 2EDCA915 Copy CRC 2EDCA915 Track not present in AccurateRip database Copy OK

Track 3

Filename D:\lless\Simon Fisher Turner - Nadja OST\No Comfort In The Bloody Shadows.wav

Peak level 59.2 % Track quality 99.9 % Test CRC 6D50F12E Copy CRC 6D50F12E Track not present in AccurateRip database Copy OK

Track 4

Filename D:\lless\Simon Fisher Turner - Nadja OST\Isle Of Spices.wav

Peak level 76.8 % Track quality 99.9 % Test CRC 11FE7D46 Copy CRC 11FE7D46 Track not present in AccurateRip database Copy OK

Track 5

Filename D:\lless\Simon Fisher Turner - Nadja OST\Pixsmiles.wav

Peak level 84.3 % Track quality 100.0 % Test CRC BBF09C93 Copy CRC BBF09C93 Track not present in AccurateRip database Copy OK

Track 6

Filename D:\lless\Simon Fisher Turner - Nadja OST\Stake In The Heart.wav

Peak level 60.4 % Track quality 100.0 % Test CRC 6E072BD9 Copy CRC 6E072BD9 Track not present in AccurateRip database Copy OK

Track 7

Filename D:\lless\Simon Fisher Turner - Nadja OST\Lunch At Great Rissington.wav

Peak level 78.5 % Track quality 100.0 % Test CRC 12FFAB73 Copy CRC 12FFAB73 Track not present in AccurateRip database Copy OK

Track 8

Filename D:\lless\Simon Fisher Turner - Nadja OST\Love, Death, Avoid It.wav

Peak level 100.0 % Track quality 100.0 % Test CRC D8866138 Copy CRC D8866138 Track not present in AccurateRip database Copy OK

Track 9

Filename D:\lless\Simon Fisher Turner - Nadja OST\Orchestrated Gravel.wav

Peak level 94.2 % Track quality 100.0 % Test CRC 25D052DF Copy CRC 25D052DF Track not present in AccurateRip database Copy OK

None of the tracks are present in the AccurateRip database

No errors occurred

End of status report
 
REM GENRE SoundtrackREM DATE 1995REM DISCID 690B4509REM COMMENT "ExactAudioCopy v0.99pb5"PERFORMER "Simon Fisher Turner"TITLE "Nadja OST"FILE "01. The Dead Travel Fast.wav" WAVE TRACK 01 AUDIO TITLE "The Dead Travel Fast" PERFORMER "Simon Fisher Turner" INDEX 01 00:00:00FILE "02. Allergy To Sunlight.wav" WAVE TRACK 02 AUDIO TITLE "Allergy To Sunlight" PERFORMER "Simon Fisher Turner" INDEX 01 00:00:00FILE "03. No Comfort In The Bloody Shadows.wav" WAVE TRACK 03 AUDIO TITLE "No Comfort In The Bloody Shadows" PERFORMER "Simon Fisher Turner" INDEX 01 00:00:00FILE "04. Isle Of Spices.wav" WAVE TRACK 04 AUDIO TITLE "Isle Of Spices" PERFORMER "Simon Fisher Turner" INDEX 01 00:00:00FILE "05. Pixsmiles.wav" WAVE TRACK 05 AUDIO TITLE "Pixsmiles" PERFORMER "Simon Fisher Turner" INDEX 01 00:00:00FILE "06. Stake In The Heart.wav" WAVE TRACK 06 AUDIO TITLE "Stake In The Heart" PERFORMER "Simon Fisher Turner" INDEX 01 00:00:00FILE "07. Lunch At Great Rissington.wav" WAVE TRACK 07 AUDIO TITLE "Lunch At Great Rissington" PERFORMER "Simon Fisher Turner" INDEX 01 00:00:00FILE "08. Love, Death, Avoid It.wav" WAVE TRACK 08 AUDIO TITLE "Love, Death, Avoid It" PERFORMER "Simon Fisher Turner" INDEX 01 00:00:00FILE "09. Orchestrated Gravel.wav" WAVE TRACK 09 AUDIO TITLE "Orchestrated Gravel" PERFORMER "Simon Fisher Turner" INDEX 01 00:00:00


Трекер:  [ 08-Июл-2011 17:42 ]

  

Скачать .torrent

Размер .torrent файла 9 KB


Размер: 196 MB
Хэш (hash) релиза: fe43c19b77dfb1097732e17c83bd392619d8fd67

Еще никто не оставлял запись к записи скачать торрент Надя Nadja . Будь первым!

!Обратная связь