Скачать через торрент музыку Оливер Твист Oliver Twist бесплатно без регистрации torrent

Если у вас наблюдаются проблемы со скриншотами, переходом по ссылками, скачиванием торрентов - проблемы в блокировщике рекламы AdBlock. #хорошегоДня!


Статистика раздачи
Размер:  256 MB   |    Зарегистрирован:  6 лет 7 месяцев   |    .torrent скачан:  56 раз   |   
Раздают:  1  
   
Загрузка...
 
Автор Сообщение

FRANKS

avatar FRANKS


Оливер Твист / Oliver Twist

Жанр: Score
Композитор: Rachel Portman
Год выпуска диска / фильма: 2005
Страна-производитель диска: США
Издатель (лейбл): Sony Classical
Номер по каталогу: 96506
Аудио кодек: APE (*.ape)
Тип рипа: image+.cue
Битрейт аудио: lossless
Продолжительность: 53:26
Наличие сканов в содержимом раздачи: да

Треклист:
01. Streets Of London (02:00)
02. The Road To The Workhouse (03:03)
03. A Kind Old Woman (02:04)
04. Oliver Runs Away (02:31)
05. The Artful Dodger (01:49)
06. Fagin's Foot (02:54)
07. The Game (02:14)
08. Oliver Learns The Hard Way (05:38)
09. Watching Mr. Brownlow's House (02:17)
10. The Escape From Fagin (01:13)
11. Prelude To A Robbery (01:48)
12. The Robbery (05:09)
13. Toby And The Wounded Oliver (01:20)
14. Nancy's Secret Journey (02:29)
15. The Murder (02:27)
16. Wanted: Bill Sykes & A Fierce Dog (02:50)
17. The Death Of Bill Sykes (06:12)
18. Newgate Prison (05:20)
 
EAC extraction logfile from 29. June 2006, 12:42 for CDRachel Portman / Rachel Portman Oliver Twist (Original Motion Picture Soundtrack)

Used drive : PIONEER DVD-RW DVR-108 Adapter: 2 ID: 0Read mode : Secure with NO C2, accurate stream, disable cacheRead offset correction : 48Overread into Lead-In and Lead-Out : No

Used output format : Internal WAV Routines 44.100 Hz; 16 Bit; Stereo

Other options : Fill up missing offset samples with silence : Yes Delete leading and trailing silent blocks : No Installed external ASPI interface

Range status and errorsSelected range Filename E:\HQShare.Net Releases\Rachel Portman - Oliver Twist\Listen\Rachel Portman - Rachel Portman Oliver Twist (Original Motion Picture Soundtrack).wav

Peak level 95.7 % Range quality 99.9 % CRC 34AE2BDF Copy OK

No errors occured

End of status report
 
REM DISCID F70C8612REM COMMENT "ExactAudioCopy v0.95b3"PERFORMER "Rachel Portman"TITLE "Rachel Portman Oliver Twist (Original Motion Picture Soundtrack)"FILE "Rachel Portman - Rachel Portman Oliver Twist (Original Motion Picture Soundtrack).ape" WAVE TRACK 01 AUDIO TITLE "Streets of London" PERFORMER "Rachel Portman" INDEX 01 00:00:00 TRACK 02 AUDIO TITLE "The Road to the Workhouse" PERFORMER "Rachel Portman" INDEX 01 02:00:41 TRACK 03 AUDIO TITLE "A Kind Old Woman" PERFORMER "Rachel Portman" INDEX 01 05:03:48 TRACK 04 AUDIO TITLE "Oliver Runs Away" PERFORMER "Rachel Portman" INDEX 01 07:08:20 TRACK 05 AUDIO TITLE "The Artful Dodger" PERFORMER "Rachel Portman" INDEX 01 09:39:43 TRACK 06 AUDIO TITLE "Fagin's Loot" PERFORMER "Rachel Portman" INDEX 01 11:28:63 TRACK 07 AUDIO TITLE "The Game " PERFORMER "Rachel Portman" INDEX 01 14:23:43 TRACK 08 AUDIO TITLE "Oliver Learns the Hard Way" PERFORMER "Rachel Portman" INDEX 01 16:38:11 TRACK 09 AUDIO TITLE "Watching Mr. Brownlow's House" PERFORMER "Rachel Portman" INDEX 01 22:16:63 TRACK 10 AUDIO TITLE "The Escape From Fagin" PERFORMER "Rachel Portman" INDEX 01 24:34:13 TRACK 11 AUDIO TITLE "Prelude to a Robbery" PERFORMER "Rachel Portman" INDEX 01 25:47:34 TRACK 12 AUDIO TITLE "The Robbery" PERFORMER "Rachel Portman" INDEX 01 27:36:01 TRACK 13 AUDIO TITLE "Toby and the Wounded Oliver" PERFORMER "Rachel Portman" INDEX 01 32:45:31 TRACK 14 AUDIO TITLE "Nancy's Secret Journey" PERFORMER "Rachel Portman" INDEX 01 34:05:57 TRACK 15 AUDIO TITLE "The Murder" PERFORMER "Rachel Portman" INDEX 01 36:34:72 TRACK 16 AUDIO TITLE "Wanted: Bill Sykes & A Fierce Dog" PERFORMER "Rachel Portman" INDEX 01 39:02:45 TRACK 17 AUDIO TITLE "The Death of Bill Sykes" PERFORMER "Rachel Portman" INDEX 01 41:52:63 TRACK 18 AUDIO TITLE "Newgate Prison" PERFORMER "Rachel Portman" INDEX 01 48:05:09
 
Started at: суббота, 16. 10. 2010. - 2:37.11

1 file found

1 -===- C:\!_TORRENT\Rachel Portman - Oliver Twist (2005)\Rachel Portman - Rachel Portman Oliver Twist (Original Motion Picture Soundtrack).ape Extracted successfully Conclusion: This track looks like CDDA with probability 92% Tempfile successfully deleted.

Finished at: суббота, 16. 10. 2010. - 2:43.18 (operation time: 0:06.07)



Трекер:  [ 30-Янв-2011 07:41 ]

  

Скачать .torrent

Размер .torrent файла 21 KB


Размер: 256 MB
Хэш (hash) релиза: ebc2e7532ddc457f5c9172fa287e19c0a23b9a4e

bot

Топик был перенесен в форум Саундтреки к фильмам и мультфильмам (lossless)

Перенес FRANKS

Хотите добавить комментарий к записи скачать торрент Оливер Твист Oliver Twist

!Обратная связь