Скачать через торрент музыку Green Zone | Зеленая зона бесплатно без регистрации torrent

Если у вас наблюдаются проблемы со скриншотами, переходом по ссылками, скачиванием торрентов - проблемы в блокировщике рекламы AdBlock. #хорошегоДня!


Статистика раздачи
Размер:  278 MB   |    Зарегистрирован:  6 лет 8 месяцев   |    .torrent скачан:  36 раз   |   
Раздают:  1  
   
Загрузка...
 
Автор Сообщение

FRANKS

avatar FRANKS


Green Zone | Зеленая зона (Не брать живым)
Жанр: Score
Год выпуска диска: 2010
Производитель диска: USA
Аудио кодек: FLAC
Тип рипа: tracks+.cue
Битрейт аудио: lossless
Продолжительность: 52:57
Трэклист:

01. Opening Book
02. 1St Wmd Raid
03. Traffic Jam
04. Meeting Raid
05. Helicopter / Freddy Runs
06. Questions
07. Miller Googles
08. Truth / Magellan / Attack
09. Mobilize / Find Al Rawi
10. Evac Preps Part 1
11. Evac Preps Part 2
12. Attack And Chase
13. WTF
14. Chaos / Email
 
Exact Audio Copy V0.99 prebeta 5 from 4. May 2009

EAC extraction logfile from 6. March 2010, 17:35

John Powell / Green Zone

Used drive : HL-DT-STBD-RE GGW-H20L Adapter: 5 ID: 0

Read mode : SecureUtilize accurate stream : YesDefeat audio cache : YesMake use of C2 pointers : No

Read offset correction : 667Overread into Lead-In and Lead-Out : NoFill up missing offset samples with silence : YesDelete leading and trailing silent blocks : NoNull samples used in CRC calculations : YesUsed interface : Native Win32 interface for Win NT & 2000Gap handling : Appended to previous track

Used output format : User Defined EncoderSelected bitrate : 128 kBit/sQuality : HighAdd ID3 tag : NoCommand line compressor : C:\Program Files (x86)\Exact Audio Copy\Flac\flac.exeAdditional command line options : -8 -V -T "ARTIST=%a" -T "TITLE=%t" -T "ALBUM=%g" -T "DATE=%y" -T "TRACKNUMBER=%n" -T "GENRE=%m" -T "COMMENT=EAC FLAC -8" %s

TOC of the extracted CD

Track | Start | Length | Start sector | End sector --------------------------------------------------------- 1 | 0:00.00 | 2:32.21 | 0 | 11420 2 | 2:32.21 | 2:39.68 | 11421 | 23413 3 | 5:12.14 | 2:59.28 | 23414 | 36866 4 | 8:11.42 | 4:33.21 | 36867 | 57362 5 | 12:44.63 | 2:43.32 | 57363 | 69619 6 | 15:28.20 | 3:25.59 | 69620 | 85053 7 | 18:54.04 | 1:55.17 | 85054 | 93695 8 | 20:49.21 | 3:50.15 | 93696 | 110960 9 | 24:39.36 | 5:17.12 | 110961 | 134747 10 | 29:56.48 | 8:36.64 | 134748 | 173511 11 | 38:33.37 | 3:24.07 | 173512 | 188818 12 | 41:57.44 | 5:25.71 | 188819 | 213264 13 | 47:23.40 | 1:16.60 | 213265 | 219024 14 | 48:40.25 | 4:17.15 | 219025 | 238314

Track 1

Filename C:\John Powell\01. John Powell – Opening Book.wav

Pre-gap length 0:00:02.00

Peak level 96.0 % Track quality 99.7 % Test CRC 4199C628 Copy CRC 4199C628 Copy OK

Track 2

Filename C:\John Powell\02. John Powell – 1St Wmd Raid.wav

Peak level 95.4 % Track quality 99.8 % Test CRC FCDD4E39 Copy CRC FCDD4E39 Copy OK

Track 3

Filename C:\John Powell\03. John Powell – Traffic Jam.wav

Peak level 98.1 % Track quality 99.6 % Test CRC D426C314 Copy CRC D426C314 Copy OK

Track 4

Filename C:\John Powell\04. John Powell – Meeting Raid.wav

Peak level 98.3 % Track quality 99.5 % Test CRC 9680399A Copy CRC 9680399A Copy OK

Track 5

Filename C:\John Powell\05. John Powell – Helicopter , Freddy Runs.wav

Peak level 95.4 % Track quality 99.7 % Test CRC 51941803 Copy CRC 51941803 Copy OK

Track 6

Filename C:\John Powell\06. John Powell – Questions.wav

Peak level 95.4 % Track quality 99.9 % Test CRC 360673C8 Copy CRC 360673C8 Copy OK

Track 7

Filename C:\John Powell\07. John Powell – Miller Googles.wav

Peak level 95.4 % Track quality 99.9 % Test CRC D06FB6CA Copy CRC D06FB6CA Copy OK

Track 8

Filename C:\John Powell\08. John Powell – Truth , Magellan , Attack.wav

Peak level 97.7 % Track quality 100.0 % Test CRC E95F3EEE Copy CRC E95F3EEE Copy OK

Track 9

Filename C:\John Powell\09. John Powell – Mobilize , Find Al Rawi.wav

Peak level 95.4 % Track quality 99.9 % Test CRC 19EE36EE Copy CRC 19EE36EE Copy OK

Track 10

Filename C:\John Powell\10. John Powell – Evac Preps Part 1.wav

Peak level 98.5 % Track quality 100.0 % Test CRC BF26560A Copy CRC BF26560A Copy OK

Track 11

Filename C:\John Powell\11. John Powell – Evac Preps Part 2.wav

Peak level 96.4 % Track quality 100.0 % Test CRC E16708BF Copy CRC E16708BF Copy OK

Track 12

Filename C:\John Powell\12. John Powell – Attack And Chase.wav

Peak level 95.4 % Track quality 100.0 % Test CRC 0A420E30 Copy CRC 0A420E30 Copy OK

Track 13

Filename C:\John Powell\13. John Powell – WTF.wav

Peak level 97.7 % Track quality 100.0 % Test CRC 9448006A Copy CRC 9448006A Copy OK

Track 14

Filename C:\John Powell\14. John Powell – Chaos , Email.wav

Peak level 95.5 % Track quality 100.0 % Test CRC 09690F2F Copy CRC 09690F2F Copy OK

No errors occurred

End of status report

 
REM GENRE SoundtrackREM DATE 2010REM DISCID BC0C690EREM COMMENT "ExactAudioCopy v0.99pb5"PERFORMER "John Powell"TITLE "Green Zone"FILE "01. John Powell – Opening Book.wav" WAVE TRACK 01 AUDIO TITLE "Opening Book" PERFORMER "John Powell" INDEX 01 00:00:00FILE "02. John Powell – 1St Wmd Raid.wav" WAVE TRACK 02 AUDIO TITLE "1St Wmd Raid" PERFORMER "John Powell" INDEX 01 00:00:00FILE "03. John Powell – Traffic Jam.wav" WAVE TRACK 03 AUDIO TITLE "Traffic Jam" PERFORMER "John Powell" INDEX 01 00:00:00FILE "04. John Powell – Meeting Raid.wav" WAVE TRACK 04 AUDIO TITLE "Meeting Raid" PERFORMER "John Powell" INDEX 01 00:00:00FILE "05. John Powell – Helicopter , Freddy Runs.wav" WAVE TRACK 05 AUDIO TITLE "Helicopter / Freddy Runs" PERFORMER "John Powell" INDEX 01 00:00:00FILE "06. John Powell – Questions.wav" WAVE TRACK 06 AUDIO TITLE "Questions" PERFORMER "John Powell" INDEX 01 00:00:00FILE "07. John Powell – Miller Googles.wav" WAVE TRACK 07 AUDIO TITLE "Miller Googles" PERFORMER "John Powell" INDEX 01 00:00:00FILE "08. John Powell – Truth , Magellan , Attack.wav" WAVE TRACK 08 AUDIO TITLE "Truth / Magellan Attack" PERFORMER "John Powell" INDEX 01 00:00:00FILE "09. John Powell – Mobilize , Find Al Rawi.wav" WAVE TRACK 09 AUDIO TITLE "Mobilize / Find Al Rawi" PERFORMER "John Powell" INDEX 01 00:00:00FILE "10. John Powell – Evac Preps Part 1.wav" WAVE TRACK 10 AUDIO TITLE "Evac Preps Part 1" PERFORMER "John Powell" INDEX 01 00:00:00FILE "11. John Powell – Evac Preps Part 2.wav" WAVE TRACK 11 AUDIO TITLE "Evac Preps Part 2" PERFORMER "John Powell" INDEX 01 00:00:00FILE "12. John Powell – Attack And Chase.wav" WAVE TRACK 12 AUDIO TITLE "Attack And Chase" PERFORMER "John Powell" INDEX 01 00:00:00FILE "13. John Powell – WTF.wav" WAVE TRACK 13 AUDIO TITLE "WTF" PERFORMER "John Powell" INDEX 01 00:00:00FILE "14. John Powell – Chaos , Email.wav" WAVE TRACK 14 AUDIO TITLE "Chaos / Email" PERFORMER "John Powell" INDEX 01 00:00:00


Трекер:  [ 29-Дек-2010 16:01 ]

  

Скачать .torrent

Размер .torrent файла 12 KB


Размер: 278 MB
Хэш (hash) релиза: b4d4049b4ce7520efc0555ea163a605fa757eb5d

Торренты, похожие на Green Zone | Зеленая зона скачать торрент

Форум Название Автор Размер S L Добавлен
Саундтреки к фильмам и мультфильмам (mp3) ·· (Score) Зеленая зона (Не брать живым) / Green Zone (by John Powell) - 2010, MP3, 320 kbps Galfimbul 127690640122 MB 0 0 1292266161

21:49

13-Дек-10

bot

Топик был перенесен в форум Музыка (Готовые раздачи)

Перенес FRANKS

bot

Топик был перенесен из форума Музыка (Готовые раздачи) в форум Саундтреки к фильмам и мультфильмам (lossless)

Mos

Хотите добавить комментарий к записи скачать торрент Green Zone | Зеленая зона

!Обратная связь