Скачать через торрент музыку Anne Dudley - American History X Американская история X - 1998, FLAC бесплатно без регистрации torrent

Если у вас наблюдаются проблемы со скриншотами, переходом по ссылками, скачиванием торрентов - проблемы в блокировщике рекламы AdBlock. #хорошегоДня!


Статистика раздачи
Размер:  232 MB   |    Зарегистрирован:  6 лет 2 месяца   |    .torrent скачан:  40 раз   |   
Раздают:  1  
   
Загрузка...
 
Автор Сообщение

Galfimbul

avatar Galfimbul


Anne Dudley - American History X

Жанр: Score
Год выпуска диска: 1998
Производитель диска: USA
Аудио кодек: FLAC
Тип рипа: image+.cue
Битрейт аудио: lossless
Продолжительность: 48:17
Источник: оригинальный диск

Трэклист:
1. American History X (4:46)
2. The Assignment (2:36)
3. Venice Beach (1:28)
4. Playing To Win (3:49)
5. People Look At Me And See My Brother (1:41)
6. If I Had Testified (4:05)
7. A Stranger At My Table (3:31)
8. Putting Up A Flag (2:06)
9. Raiders (3:02)
10. Complications (1:38)
11. Starting To Remind Me Of You (1:43)
12. The Right Questions (3:24)
13. The Path To Redemption (2:56)
14. "We Are Not Enemies" (2:05)
15. Two Brothers (2:31)
16. Storm Clouds Gathering (2:04)
17. Benedictus (3:35)
 
Exact Audio Copy V0.99 prebeta 4 from 23. January 2008

Отчёт EAC об извлечении, выполненном 21. февраля 2010, 23:46

Anne Dudley / American History X

Дисковод: ASUS DRW-1814BLT Adapter: 2 ID: 0

Режим чтения : ДостоверностьИспользование точного потока : ДаОтключение кэша аудио : ДаИспользование указателей C2 : Нет

Коррекция смещения при чтении : 6Способность читать области Lead-in и Lead-out : НетЗаполнение пропущенных сэмплов тишиной : ДаУдаление блоков с тишиной в начале и конце : НетПри вычислениях CRC использовались нулевые сэмплы : ДаИнтерфейс : Встроенный Win32-интерфейс для Win NT/2000

Выходной формат : Пользовательский кодировщикВыбранный битрейт : 768 kBit/sКачество : ВысокийДобавление ID3-тэга : НетУтилита сжатия : D:\Program Files\Exact Audio Copy\Flac\Flac.exeДополнительные параметры : -8 --delete-input-file -o "D:\CDImage.flac" -V %s

TOC извлечённого CD

Трек | Старт | Длительность | Начальный сектор | Конечный сектор --------------------------------------------------------------------- 1 | 0:00.00 | 4:50.25 | 0 | 21774 2 | 4:50.25 | 2:40.10 | 21775 | 33784 3 | 7:30.35 | 1:31.02 | 33785 | 40611 4 | 9:01.37 | 3:54.73 | 40612 | 58234 5 | 12:56.35 | 1:44.17 | 58235 | 66051 6 | 14:40.52 | 4:09.50 | 66052 | 84776 7 | 18:50.27 | 3:36.68 | 84777 | 101044 8 | 22:27.20 | 2:11.22 | 101045 | 110891 9 | 24:38.42 | 3:05.35 | 110892 | 124801 10 | 27:44.02 | 1:42.28 | 124802 | 132479 11 | 29:26.30 | 1:48.05 | 132480 | 140584 12 | 31:14.35 | 3:27.42 | 140585 | 156151 13 | 34:42.02 | 2:59.73 | 156152 | 169649 14 | 37:42.00 | 2:10.70 | 169650 | 179469 15 | 39:52.70 | 2:37.25 | 179470 | 191269 16 | 42:30.20 | 2:08.25 | 191270 | 200894 17 | 44:38.45 | 3:38.57 | 200895 | 217301

Характеристики диапазона извлечения и сообщения об ошибках

Выбранный диапазон

Имя файла D:\Anne Dudley - American History X.wav

Пиковый уровень 97.7 % Качество диапазона 100.0 % CRC теста 4F2C503F CRC копии 4F2C503F Копирование... OK

Ошибок не произошло

AccurateRip: сводка

Трек 1 точность не определена (достоверность 2) [B3B284AC], AccurateRip вернул [04ADBAB4]Трек 2 точность не определена (достоверность 2) [8D7E423E], AccurateRip вернул [56778EAE]Трек 3 точность не определена (достоверность 2) [E82B21C6], AccurateRip вернул [C67EB727]Трек 4 точность не определена (достоверность 2) [E9A43025], AccurateRip вернул [28703392]Трек 5 точность не определена (достоверность 2) [B1F75D55], AccurateRip вернул [DE0CBE34]Трек 6 точность не определена (достоверность 2) [22BC5C2B], AccurateRip вернул [CA7A79D1]Трек 7 точность не определена (достоверность 2) [DD143166], AccurateRip вернул [82F53302]Трек 8 точность не определена (достоверность 2) [B5422EC3], AccurateRip вернул [E89B2E63]Трек 9 точность не определена (достоверность 2) [A8F3DD77], AccurateRip вернул [0B61ACB8]Трек 10 точность не определена (достоверность 2) [7C015362], AccurateRip вернул [7C426416]Трек 11 точность не определена (достоверность 2) [054F8188], AccurateRip вернул [DDAB07EC]Трек 12 нет в базе данныхТрек 13 точность не определена (достоверность 2) [D52791F4], AccurateRip вернул [2FC35588]Трек 14 точность не определена (достоверность 2) [AE680FDD], AccurateRip вернул [B9C2AA7C]Трек 15 точность не определена (достоверность 2) [964E0CB9], AccurateRip вернул [450FE7A3]Трек 16 точность не определена (достоверность 2) [3E556A7F], AccurateRip вернул [4346F6CB]Трек 17 точность не определена (достоверность 2) [F7332624], AccurateRip вернул [D6D9DC3D]

16 трек(и) не удалось проверить на точность 1 трек(и) не содержатся в базе AccurateRip

Ни один трек не прошёл проверки на точностьВ вашей базе может быть иной вариант штамповки диска

Конец отчёта


Трекер:  [ 08-Июл-2011 17:42 ]

  

Скачать .torrent

Размер .torrent файла 37 KB


Размер: 232 MB
Хэш (hash) релиза: 24bdd093b4f6ab6331bd96f7c2201fc77b78b84e

Еще никто не оставлял запись к записи скачать торрент Anne Dudley - American History X Американская история X - 1998, FLAC . Будь первым!

!Обратная связь