Скачать через торрент музыку Джуманджи Jumanji бесплатно без регистрации torrent

Если у вас наблюдаются проблемы со скриншотами, переходом по ссылками, скачиванием торрентов - проблемы в блокировщике рекламы AdBlock. #хорошегоДня!


Статистика раздачи
Размер:  212 MB   |    Зарегистрирован:  6 лет 2 месяца   |    .torrent скачан:  39 раз   |   
Раздают:  1  
   
Загрузка...
 
Автор Сообщение

Galfimbul

avatar Galfimbul




Жанр: Score | Год выпуска диска: 1995 | Издатель (лейбл): Epic Soundtrax
Аудио кодек: FLAC (*.flac) | Тип рипа: tracks+.cue | Битрейт аудио: lossless
Продолжительность: 00:51:06
Источник: What.CD
01. Prologue and Main Title [03:41]
02. First Move [02:20]
03. Monkey Mayhem [04:42]
04. A New World [02:40]
05. It's Sarah's Move [02:36]
06. The Hunter [01:56]
07. Rampage Through Town [02:28]
08. Alan Parrish [04:17]
09. Stampede! [02:12]
10. A Pelican Steals the Game [01:39]
11. The Monsoon [04:47]
12. 'Jumanji' [11:47]
13. End Titles [05:55]
 
Exact Audio Copy V0.99 prebeta 5 from 4. May 2009

EAC extraction logfile from 12. August 2010, 15:43

James Horner / Jumanji

Used drive : PIONEER DVD-RW DVR-111D Adapter: 1 ID: 0

Read mode : SecureUtilize accurate stream : YesDefeat audio cache : YesMake use of C2 pointers : No

Read offset correction : 48Overread into Lead-In and Lead-Out : NoFill up missing offset samples with silence : YesDelete leading and trailing silent blocks : NoNull samples used in CRC calculations : YesUsed interface : Native Win32 interface for Win NT & 2000Gap handling : Appended to previous track

Used output format : User Defined EncoderSelected bitrate : 320 kBit/sQuality : HighAdd ID3 tag : NoCommand line compressor : C:\Program Files (x86)\Exact Audio Copy\FLAC\FLAC.EXEAdditional command line options : -V -8 -T "artist=%a" -T "title=%t" -T "album=%g" -T "date=%y" -T "tracknumber=%n" -T "genre=%m" %s

TOC of the extracted CD

Track | Start | Length | Start sector | End sector --------------------------------------------------------- 1 | 0:00.00 | 3:41.52 | 0 | 16626 2 | 3:41.52 | 2:20.65 | 16627 | 27191 3 | 6:02.42 | 4:42.05 | 27192 | 48346 4 | 10:44.47 | 2:40.30 | 48347 | 60376 5 | 13:25.02 | 2:36.38 | 60377 | 72114 6 | 16:01.40 | 1:56.25 | 72115 | 80839 7 | 17:57.65 | 2:28.00 | 80840 | 91939 8 | 20:25.65 | 4:17.57 | 91940 | 111271 9 | 24:43.47 | 2:12.53 | 111272 | 121224 10 | 26:56.25 | 1:39.45 | 121225 | 128694 11 | 28:35.70 | 4:47.65 | 128695 | 150284 12 | 33:23.60 | 11:47.20 | 150285 | 203329 13 | 45:11.05 | 5:55.60 | 203330 | 230014

Track 1

Filename J:\Downloads\(1995) James Horner - Jumanji [FLAC]\01 Prologue and Main Title.wav

Pre-gap length 0:00:02.00

Peak level 86.4 % Track quality 100.0 % Test CRC D4AF6D1A Copy CRC D4AF6D1A Accurately ripped (confidence 6) [B8EC271C] Copy OK

Track 2

Filename J:\Downloads\(1995) James Horner - Jumanji [FLAC]\02 First Move.wav

Pre-gap length 0:00:00.02

Peak level 73.7 % Track quality 100.0 % Test CRC 7278D9AB Copy CRC 7278D9AB Accurately ripped (confidence 5) [8FF17965] Copy OK

Track 3

Filename J:\Downloads\(1995) James Horner - Jumanji [FLAC]\03 Monkey Mayhem.wav

Pre-gap length 0:00:00.02

Peak level 95.3 % Track quality 100.0 % Test CRC D8DD028C Copy CRC D8DD028C Accurately ripped (confidence 6) [11B5CA47] Copy OK

Track 4

Filename J:\Downloads\(1995) James Horner - Jumanji [FLAC]\04 A New World.wav

Pre-gap length 0:00:00.02

Peak level 12.8 % Track quality 99.9 % Test CRC 312E249D Copy CRC 312E249D Accurately ripped (confidence 5) [1AA212B3] Copy OK

Track 5

Filename J:\Downloads\(1995) James Horner - Jumanji [FLAC]\05 It's Sarah's Move.wav

Pre-gap length 0:00:00.02

Peak level 46.3 % Track quality 100.0 % Test CRC B4CE39B1 Copy CRC B4CE39B1 Accurately ripped (confidence 5) [2C2FAB9B] Copy OK

Track 6

Filename J:\Downloads\(1995) James Horner - Jumanji [FLAC]\06 The Hunter.wav

Pre-gap length 0:00:00.04

Peak level 95.3 % Track quality 100.0 % Test CRC 9119AA37 Copy CRC 9119AA37 Accurately ripped (confidence 6) [87EA2CE9] Copy OK

Track 7

Filename J:\Downloads\(1995) James Horner - Jumanji [FLAC]\07 Rampage Through Town.wav

Pre-gap length 0:00:00.04

Peak level 74.6 % Track quality 100.0 % Test CRC D5752006 Copy CRC D5752006 Accurately ripped (confidence 5) [6E456FC6] Copy OK

Track 8

Filename J:\Downloads\(1995) James Horner - Jumanji [FLAC]\08 Alan Parrish.wav

Pre-gap length 0:00:00.04

Peak level 43.2 % Track quality 100.0 % Test CRC 55739C69 Copy CRC 55739C69 Accurately ripped (confidence 5) [4DE0193F] Copy OK

Track 9

Filename J:\Downloads\(1995) James Horner - Jumanji [FLAC]\09 Stampede!.wav

Pre-gap length 0:00:00.02

Peak level 95.3 % Track quality 100.0 % Test CRC F243A08C Copy CRC F243A08C Accurately ripped (confidence 4) [3E160B0C] Copy OK

Track 10

Filename J:\Downloads\(1995) James Horner - Jumanji [FLAC]\10 A Pelican Steals the Game.wav

Pre-gap length 0:00:00.04

Peak level 22.6 % Track quality 99.8 % Test CRC 278E2181 Copy CRC 278E2181 Accurately ripped (confidence 5) [AFF79316] Copy OK

Track 11

Filename J:\Downloads\(1995) James Horner - Jumanji [FLAC]\11 The Monsoon.wav

Pre-gap length 0:00:00.04

Peak level 91.1 % Track quality 99.9 % Test CRC 4D986B1D Copy CRC 4D986B1D Accurately ripped (confidence 5) [71D61C55] Copy OK

Track 12

Filename J:\Downloads\(1995) James Horner - Jumanji [FLAC]\12 'Jumanji'.wav

Pre-gap length 0:00:00.04

Peak level 94.6 % Track quality 99.9 % Test CRC FF2F9DC1 Copy CRC FF2F9DC1 Accurately ripped (confidence 5) [79739B43] Copy OK

Track 13

Filename J:\Downloads\(1995) James Horner - Jumanji [FLAC]\13 End Titles.wav

Pre-gap length 0:00:00.06

Peak level 59.0 % Track quality 100.0 % Test CRC EFD0EBE5 Copy CRC EFD0EBE5 Accurately ripped (confidence 5) [421B8DB0] Copy OK

All tracks accurately ripped

No errors occurred

End of status report
 
REM GENRE SoundtrackREM DATE 1995REM DISCID AA0BFA0DREM COMMENT "ExactAudioCopy v0.99pb5"PERFORMER "James Horner"TITLE "Jumanji"FILE "01 Prologue and Main Title.wav" WAVE TRACK 01 AUDIO TITLE "Prologue and Main Title" PERFORMER "James Horner" INDEX 01 00:00:00 TRACK 02 AUDIO TITLE "First Move" PERFORMER "James Horner" INDEX 00 03:41:50FILE "02 First Move.wav" WAVE INDEX 01 00:00:00 TRACK 03 AUDIO TITLE "Monkey Mayhem" PERFORMER "James Horner" INDEX 00 02:20:63FILE "03 Monkey Mayhem.wav" WAVE INDEX 01 00:00:00 TRACK 04 AUDIO TITLE "A New World" PERFORMER "James Horner" INDEX 00 04:42:03FILE "04 A New World.wav" WAVE INDEX 01 00:00:00 TRACK 05 AUDIO TITLE "It's Sarah's Move" PERFORMER "James Horner" INDEX 00 02:40:28FILE "05 It's Sarah's Move.wav" WAVE INDEX 01 00:00:00 TRACK 06 AUDIO TITLE "The Hunter" PERFORMER "James Horner" INDEX 00 02:36:35FILE "06 The Hunter.wav" WAVE INDEX 01 00:00:00 TRACK 07 AUDIO TITLE "Rampage Through Town" PERFORMER "James Horner" INDEX 00 01:56:22FILE "07 Rampage Through Town.wav" WAVE INDEX 01 00:00:00 TRACK 08 AUDIO TITLE "Alan Parrish" PERFORMER "James Horner" INDEX 00 02:27:72FILE "08 Alan Parrish.wav" WAVE INDEX 01 00:00:00 TRACK 09 AUDIO TITLE "Stampede!" PERFORMER "James Horner" INDEX 00 04:17:55FILE "09 Stampede!.wav" WAVE INDEX 01 00:00:00 TRACK 10 AUDIO TITLE "A Pelican Steals the Game" PERFORMER "James Horner" INDEX 00 02:12:50FILE "10 A Pelican Steals the Game.wav" WAVE INDEX 01 00:00:00 TRACK 11 AUDIO TITLE "The Monsoon" PERFORMER "James Horner" INDEX 00 01:39:42FILE "11 The Monsoon.wav" WAVE INDEX 01 00:00:00 TRACK 12 AUDIO TITLE "'Jumanji'" PERFORMER "James Horner" INDEX 00 04:47:62FILE "12 'Jumanji'.wav" WAVE INDEX 01 00:00:00 TRACK 13 AUDIO TITLE "End Titles" PERFORMER "James Horner" INDEX 00 11:47:15FILE "13 End Titles.wav" WAVE INDEX 01 00:00:00


Трекер:  [ 08-Июл-2011 18:05 ]

  

Скачать .torrent

Размер .torrent файла 9 KB


Размер: 212 MB
Хэш (hash) релиза: bb5b295e2438fce3cbac06a71c69493446799b94

Еще никто не оставлял запись к записи скачать торрент Джуманджи Jumanji . Будь первым!

!Обратная связь