Скачать через торрент музыку Speed бесплатно без регистрации torrent

Если у вас наблюдаются проблемы со скриншотами, переходом по ссылками, скачиванием торрентов - проблемы в блокировщике рекламы AdBlock. #хорошегоДня!


Статистика раздачи
Размер:  345 MB   |    Зарегистрирован:  6 лет 10 месяцев   |    .torrent скачан:  68 раз   |   
Раздают:  1  
   
Загрузка...
 
Автор Сообщение

FRANKS

avatar FRANKS


Speed (Скорость) - Songs From And Inspired By The Motion Picture

Жанр: Soundtrack
Год выпуска диска: 1994
Производитель диска: Fox Records
Аудио кодек: FLAC
Тип рипа: tracks+.cue
Битрейт аудио: lossless
Продолжительность: 00:50:09

Трэклист:

01. Billy Idol - Speed (4:21)
02. The Plimsouls - A Million Miles Away (3:42)
03. Gin Blossoms - Soul Deep (3:06)
04. Cracker - Let's Go For A Ride (3:09)
05. Blues Traveler - Go Outside And Drive (4:52)
06. Ric Ocasek - Crash (5:06)
07. Pat Benatar - Rescue Me (3:01)
08. Rod Stewart - Hard Road (4:28)
09. Carnival Strippers - Cot (5:24)
10. Gary Numan - Cars ('93 Sprint) (4:02)
11. Saint Etienne - Like A Motorway (5:43)
12. Kiss - Mr. Speed (3:16)

 
 
Exact Audio Copy V0.99 prebeta 4 from 23. January 2008

EAC extraction logfile from 25. September 2008, 11:25

Soundtrack (from and inspired by) / Speed

Used drive : Optiarc DVD RW AD-7173A Adapter: 3 ID: 1

Read mode : SecureUtilize accurate stream : YesDefeat audio cache : YesMake use of C2 pointers : No

Read offset correction : 48Overread into Lead-In and Lead-Out : NoFill up missing offset samples with silence : YesDelete leading and trailing silent blocks : NoNull samples used in CRC calculations : YesUsed interface : Installed external ASPI interfaceGap handling : Appended to previous track

Used output format : Internal WAV RoutinesSample format : 44.100 Hz; 16 Bit; Stereo

TOC of the extracted CD

Track | Start | Length | Start sector | End sector --------------------------------------------------------- 1 | 0:00.00 | 4:20.42 | 0 | 19541 2 | 4:20.42 | 3:41.42 | 19542 | 36158 3 | 8:02.09 | 3:05.59 | 36159 | 50092 4 | 11:07.68 | 3:08.52 | 50093 | 64244 5 | 14:16.45 | 4:51.71 | 64245 | 86140 6 | 19:08.41 | 5:06.15 | 86141 | 109105 7 | 24:14.56 | 3:00.54 | 109106 | 122659 8 | 27:15.35 | 4:28.16 | 122660 | 142775 9 | 31:43.51 | 5:24.17 | 142776 | 167092 10 | 37:07.68 | 4:01.73 | 167093 | 185240 11 | 41:09.66 | 5:43.09 | 185241 | 210974 12 | 46:53.00 | 3:16.24 | 210975 | 225698

Track 1

Filename D:\Works\CD-Rips\Speed OST\Soundtrack (from and inspired by) - 1994 - Speed\01. Soundtrack (from and inspired by) - Billy Idol , Speed.wav

Pre-gap length 0:00:02.00

Peak level 88.3 % Track quality 100.0 % Test CRC 42890B29 Copy CRC 42890B29 Track not present in AccurateRip database Copy OK

Track 2

Filename D:\Works\CD-Rips\Speed OST\Soundtrack (from and inspired by) - 1994 - Speed\02. Soundtrack (from and inspired by) - The Plimsouls , A Million Miles Away.wav

Pre-gap length 0:00:01.45

Peak level 85.9 % Track quality 100.0 % Test CRC 81BF2458 Copy CRC 81BF2458 Track not present in AccurateRip database Copy OK

Track 3

Filename D:\Works\CD-Rips\Speed OST\Soundtrack (from and inspired by) - 1994 - Speed\03. Soundtrack (from and inspired by) - Gin Blossoms , Soul Deep.wav

Pre-gap length 0:00:01.45

Peak level 90.9 % Track quality 100.0 % Test CRC 772CCFC9 Copy CRC 772CCFC9 Track not present in AccurateRip database Copy OK

Track 4

Filename D:\Works\CD-Rips\Speed OST\Soundtrack (from and inspired by) - 1994 - Speed\04. Soundtrack (from and inspired by) - Cracker , Let's Go For A Ride.wav

Pre-gap length 0:00:01.45

Peak level 99.2 % Track quality 100.0 % Test CRC 8E0F84C0 Copy CRC 8E0F84C0 Track not present in AccurateRip database Copy OK

Track 5

Filename D:\Works\CD-Rips\Speed OST\Soundtrack (from and inspired by) - 1994 - Speed\05. Soundtrack (from and inspired by) - Blues Traveler , Go Outside And Drive.wav

Pre-gap length 0:00:01.45

Peak level 100.0 % Track quality 99.9 % Test CRC A0F05FD0 Copy CRC A0F05FD0 Track not present in AccurateRip database Copy OK

Track 6

Filename D:\Works\CD-Rips\Speed OST\Soundtrack (from and inspired by) - 1994 - Speed\06. Soundtrack (from and inspired by) - Ric Ocasek , Crash.wav

Pre-gap length 0:00:01.44

Peak level 94.3 % Track quality 100.0 % Test CRC 640D4627 Copy CRC 640D4627 Track not present in AccurateRip database Copy OK

Track 7

Filename D:\Works\CD-Rips\Speed OST\Soundtrack (from and inspired by) - 1994 - Speed\07. Soundtrack (from and inspired by) - Pat Benatar , Rescue Me.wav

Pre-gap length 0:00:01.45

Peak level 77.7 % Track quality 100.0 % Test CRC 1CC4356B Copy CRC 1CC4356B Track not present in AccurateRip database Copy OK

Track 8

Filename D:\Works\CD-Rips\Speed OST\Soundtrack (from and inspired by) - 1994 - Speed\08. Soundtrack (from and inspired by) - Rod Stewart , Hard Road.wav

Pre-gap length 0:00:01.45

Peak level 100.0 % Track quality 99.9 % Test CRC 1AC261D1 Copy CRC 1AC261D1 Track not present in AccurateRip database Copy OK

Track 9

Filename D:\Works\CD-Rips\Speed OST\Soundtrack (from and inspired by) - 1994 - Speed\09. Soundtrack (from and inspired by) - Carnival Strippers , Cot.wav

Pre-gap length 0:00:01.45

Peak level 95.8 % Track quality 100.0 % Test CRC 2F3E74EE Copy CRC 2F3E74EE Track not present in AccurateRip database Copy OK

Track 10

Filename D:\Works\CD-Rips\Speed OST\Soundtrack (from and inspired by) - 1994 - Speed\10. Soundtrack (from and inspired by) - Gary Numan , Cars ('93 Sprint).wav

Pre-gap length 0:00:01.45

Peak level 100.0 % Track quality 99.9 % Test CRC 879BB018 Copy CRC 879BB018 Track not present in AccurateRip database Copy OK

Track 11

Filename D:\Works\CD-Rips\Speed OST\Soundtrack (from and inspired by) - 1994 - Speed\11. Soundtrack (from and inspired by) - Saint Etienne , Like A Motorway.wav

Pre-gap length 0:00:01.45

Peak level 81.2 % Track quality 99.9 % Test CRC CAE0366A Copy CRC CAE0366A Track not present in AccurateRip database Copy OK

Track 12

Filename D:\Works\CD-Rips\Speed OST\Soundtrack (from and inspired by) - 1994 - Speed\12. Soundtrack (from and inspired by) - Kiss , Mr. Speed.wav

Pre-gap length 0:00:01.45

Peak level 100.0 % Track quality 100.0 % Test CRC 5EEE3697 Copy CRC 5EEE3697 Track not present in AccurateRip database Copy OK

None of the tracks are present in the AccurateRip database

No errors occurred

End of status report
AUDIOCHECKER v2.0 beta (build 457) - by Dester - opdester@freemail.hu
~~~~~~~~~~~~~~~~~~~~~~~~~~~~~~~~~~
-=== DO NOT EDIT THIS FILE! ===-

Path: ...\Speed (Songs From and Inspired by the Motion Picture) (1994) (lossless)

01 -=- 01. Billy Idol - Speed.flac -=- CDDA (100%)
02 -=- 02. The Plimsouls - A Million Miles Away.flac -=- CDDA (100%)
03 -=- 03. Gin Blossoms - Soul Deep.flac -=- CDDA (100%)
04 -=- 04. Cracker - Let's Go For A Ride.flac -=- CDDA (100%)
05 -=- 05. Blues Traveler - Go Outside And Drive.flac -=- CDDA (100%)
06 -=- 06. Ric Ocasek - Crash.flac -=- CDDA (100%)
07 -=- 07. Pat Benatar - Rescue Me.flac -=- CDDA (100%)
08 -=- 08. Rod Stewart - Hard Road.flac -=- CDDA (99%)
09 -=- 09. Carnival Strippers - Cot.flac -=- CDDA (100%)
10 -=- 10. Gary Numan - Cars ('93 Sprint).flac -=- CDDA (100%)
11 -=- 11. Saint Etienne - Like A Motorway.flac -=- CDDA (99%)
12 -=- 12. Kiss - Mr. Speed.flac -=- CDDA (100%)

Summary 99,83% CDDA

141674404


Трекер:  [ 30-Янв-2011 07:45 ]

  

Скачать .torrent

Размер .torrent файла 15 KB


Размер: 345 MB
Хэш (hash) релиза: 7da5e299ee63908f4f3f0e61b6180406c3f4d9bc

Торренты, похожие на Speed скачать торрент

Форум Название Автор Размер S L Добавлен
Rосk | Mеtаl | Аltеrnаtivе, Рunk, Indереndеnt (mр3) ·· (Speed Metal) Speed Queen - King Of The Road (EP) - 2017, MP3, 320 kbps Galfimbul 5508724653 MB 0 0 1491322023

19:07

4-Апр-17

Rосk | Mеtаl | Аltеrnаtivе, Рunk, Indереndеnt (mр3) ·· (Heavy Metal / Speed Metal) Ranger - Speed & Violence - 2016, MP3, 320 kbps Galfimbul 9132196087 MB 0 0 1480968182

23:03

5-Дек-16

Rосk | Mеtаl | Аltеrnаtivе, Рunk, Indереndеnt (mр3) ·· (Speed Metal) Seax - Speed Metal Mania - 2016, MP3, 320 kbps Galfimbul 10264953298 MB 0 0 1475252941

19:29

30-Сен-16

Rосk | Mеtаl | Аltеrnаtivе, Рunk, Indереndеnt (mр3) ·· (Heavy/Speed Metal) Spellcaster - Spells of Speed (EP) - 2010, MP3, 320 kbps Galfimbul 6880568366 MB 0 0 1469390115

22:55

24-Июл-16

Электронная музыка (mp3) ·· (Speed Garage, Garage House, 2 Step) VA - Speed Garage Anthems 99 (2CD) (Global Television [RADCD142]) - 1999, MP3 (tracks), 320 kbps Galfimbul 337793008322 MB 0 0 1459670498

11:01

3-Апр-16

Rосk | Mеtаl | Аltеrnаtivе, Рunk, Indереndеnt (mр3) ·· (Heavy Metal, Speed Metal) Anvil - Speed Of Sound [MICP-10133] - 1999, MP3, 320 kbps Galfimbul 119926784114 MB 0 0 1449285496

06:18

5-Дек-15

Электронная музыка (lossless) ·· (Speed Garage, Pumping House) [CD] VA - DJ Gluk - Ru$$o Speed Garago - 2005, FLAC (image+.cue), lossless Galfimbul 588637377561 MB 0 0 1447965179

23:32

19-Ноя-15

Rосk | Mеtаl | Аltеrnаtivе, Рunk, Indереndеnt (mр3) ·· (Thrash Metal) Division Speed - Division Speed - 2015, MP3, 320 kbps Galfimbul 110514906105 MB 0 0 1443128780

00:06

25-Сен-15

Rосk | Mеtаl | Аltеrnаtivе, Рunk, Indереndеnt (mр3) ·· (Hard Rock) Six Speed Kill - Six Speed Kill - 2015, MP3, 320 kbps Galfimbul 8264458579 MB 0 0 1438291404

00:23

31-Июл-15

Электронная музыка (lossless) ·· (UK Garage, Speed Garage) [CD] VA - Speed Garage Classics, Volume one - 1997, FLAC (tracks+.cue), lossless Galfimbul 523841304500 MB 0 0 1426445420

21:50

15-Мар-15

Электронная музыка (lossless) ·· (House/Speed Garage) VA - Отдыхаем Хорошо 2. Speed Garage - 1999, FLAC (image+.cue), lossless Galfimbul 535549262511 MB 0 0 1415584921

05:02

10-Ноя-14

Rосk | Mеtаl | Аltеrnаtivе, Рunk, Indереndеnt (mр3) ·· (Hard Rock | Heavy Blues) The Illinois Speed Press - The Illinois Speed Press - 1969 (2013), MP3, 320 kbps Polarnik 171965999164 MB 0 0 1379904268

05:44

23-Сен-13

Rосk | Mеtаl | Аltеrnаtivе, Рunk, Indереndеnt (losslеss) ·· (Heavy Blues Rock, Hard Rock) The Illinois Speed Press - The Illinois Speed Press (1969) (reissue 2013) - 2013, FLAC (tracks+.cue), lossless Polarnik 344140732328 MB 0 0 1379817287

05:34

22-Сен-13

Rосk | Mеtаl | Аltеrnаtivе, Рunk, Indереndеnt (mр3) ·· (Hard Rock | Sleaze Rock) Speed Stroke - Speed Stroke - 2013, MP3, 320 kbps Galfimbul 116663758111 MB 0 0 1363249833

11:30

14-Мар-13

Rосk | Mеtаl | Аltеrnаtivе, Рunk, Indереndеnt (mр3) ·· (Speed Metal, Thrash Metal, Speed Metal, Thrash Metal) Taurus - Дискография (1986 - 2010) [MP3 (tracks), lossy] Galfimbul 379251210362 MB 0 0 1362392480

13:21

4-Мар-13

Электронная музыка (lossless) ·· (Hardcore) [16bit / 44,1Hz] The Speed Freak ‎– The Speed Freak - 1992, FLAC (tracks) Galfimbul 109360840104 MB 0 0 1361798850

16:27

25-Фев-13

Электронная музыка ·· (House, UK Garage, Speed Garage) VA - Rhythm 'N' Cruise - Speed Garage In Overdrive - 1998, FLAC (tracks+.cue), lossless Galfimbul 487657460465 MB 0 0 1356092100

15:15

21-Дек-12

Саундтреки ·· (Score) Скорость 2: Контроль над круизом / Speed 2: Cruise Control (Speed 2: Cruise Control (Original Motion Picture Score)) (Mark Mancina) - 2010, MP3, 320 kbps Galfimbul 171273439163 MB 0 0 1347171780

09:23

9-Сен-12

Электронная музыка ·· (House, UK Garage, Speed Garage) VA - Pure Speed Garage 2 - 1999, FLAC (tracks+.cue), lossless Galfimbul 11066209101.03 GB 0 0 1338044520

18:02

26-Май-12

Электронная музыка (mp3) ·· (Speed Garage) VA - Happy House - Special Speed Garage - 1998, MP3 (tracks), 256 kbps L 147890968141 MB 0 0 1300077872

07:44

14-Мар-11

bot

Топик был перенесен в форум Саундтреки к фильмам и мультфильмам (lossless)

Перенес FRANKS

Хотите добавить комментарий к записи скачать торрент Speed

!Обратная связь