Скачать через торрент музыку Леди-ястреб Ladyhawke бесплатно без регистрации torrent

Если у вас наблюдаются проблемы со скриншотами, переходом по ссылками, скачиванием торрентов - проблемы в блокировщике рекламы AdBlock. #хорошегоДня!


Статистика раздачи
Размер:  399 MB   |    Зарегистрирован:  6 лет 7 месяцев   |    .torrent скачан:  64 раза   |   
Раздают:  1  
   
Загрузка...
 
Автор Сообщение

FRANKS

avatar FRANKS


Леди-ястреб / Ladyhawke

Жанр: Soundtrack
Композитор: Andrew Powell with Alan Parsons
Год выпуска диска: 1995
Год выпуска фильма: 1985
Страна-производитель диска: США
Издатель (лейбл): GNP/Crescendo Record Co, Inc. (under license from Atlantic Recording Corporation)
Аудио кодек: FLAC (*.flac)
Тип рипа: image+.cue
Битрейт аудио: lossless
Продолжительность: 69:55
Наличие сканов в содержимом раздачи: да

Треклист:
1. Main Title 3:00
2. Phillippe's Escape 1:43
3. The Search for Phillippe 3:26
4. Tavern Fight (Phillippe) 2:09
5. Tavern Fight (Navarre) 2:39
6. Pitou's Woods 4:04
7. Phillippe Describes Isabeau 1:12
8. Bishop's Procession 2:49
9. Wedding Music 1:41
10. Navarre's Ambush 4:53
11. Imperius Removes Arrow 1:34
12. Chase - Fall - Transformation 2:07
13. Cezar's Woods 5:30
14. She Was Sad at First 2:06
15. Navarre Returns to Aquila 1:37
16. Turret Chase - The Fall [Film Version] 2:45
17. Wolf Trapped in Ice 2:35
18. Navarre and Isabeau's Dual Transformation 3:23
19. Navarre and Marquet Duel 4:23
20. Marquet's Death 2:00
21. Bishop's Death 2:27
22. Final Reunion - End Title 8:16
23. Ladyhawke Theme [Single Version] 3:36
 
Exact Audio Copy V0.99 prebeta 5 from 4. May 2009

EAC extraction logfile from 9. November 2010, 17:59

Andrew Powell / Ladyhawke

Used drive : TEAC CD-W54E Adapter: 1 ID: 0

Read mode : SecureUtilize accurate stream : YesDefeat audio cache : YesMake use of C2 pointers : No

Read offset correction : 685Overread into Lead-In and Lead-Out : NoFill up missing offset samples with silence : YesDelete leading and trailing silent blocks : NoNull samples used in CRC calculations : YesUsed interface : Native Win32 interface for Win NT & 2000

Used output format : User Defined EncoderSelected bitrate : 1024 kBit/sQuality : HighAdd ID3 tag : NoCommand line compressor : E:\Program Files\FLAC\flac.exeAdditional command line options : -V -8 -T "artist=%a" -T "title=%t" -T "album=%g" -T "date=%y" -T "tracknumber=%n" -T "genre=%m" %s

TOC of the extracted CD

Track | Start | Length | Start sector | End sector --------------------------------------------------------- 1 | 0:00.00 | 3:00.20 | 0 | 13519 2 | 3:00.20 | 1:43.00 | 13520 | 21244 3 | 4:43.20 | 3:26.25 | 21245 | 36719 4 | 8:09.45 | 2:09.55 | 36720 | 46449 5 | 10:19.25 | 2:39.22 | 46450 | 58396 6 | 12:58.47 | 4:04.45 | 58397 | 76741 7 | 17:03.17 | 1:12.68 | 76742 | 82209 8 | 18:16.10 | 2:49.62 | 82210 | 94946 9 | 21:05.72 | 1:41.18 | 94947 | 102539 10 | 22:47.15 | 4:53.20 | 102540 | 124534 11 | 27:40.35 | 1:34.62 | 124535 | 131646 12 | 29:15.22 | 2:07.20 | 131647 | 141191 13 | 31:22.42 | 5:30.30 | 141192 | 165971 14 | 36:52.72 | 2:06.58 | 165972 | 175479 15 | 38:59.55 | 1:37.07 | 175480 | 182761 16 | 40:36.62 | 2:45.68 | 182762 | 195204 17 | 43:22.55 | 2:35.10 | 195205 | 206839 18 | 45:57.65 | 3:23.70 | 206840 | 222134 19 | 49:21.60 | 4:23.00 | 222135 | 241859 20 | 53:44.60 | 2:00.25 | 241860 | 250884 21 | 55:45.10 | 2:27.35 | 250885 | 261944 22 | 58:12.45 | 8:16.00 | 261945 | 299144 23 | 66:28.45 | 3:36.00 | 299145 | 315344

Range status and errors

Selected range

Filename G:\torrents\rutracker\_UP\Andrew Powell - Ladyhawke.wav

Peak level 95.4 % Range quality 99.9 % Test CRC F58F8CCC Copy CRC F58F8CCC Copy OK

No errors occurred

AccurateRip summary

Track 1 accurately ripped (confidence 13) [8CE0BFA5]Track 2 accurately ripped (confidence 13) [5EF2BDFE]Track 3 accurately ripped (confidence 13) [E3BF335C]Track 4 accurately ripped (confidence 13) [0E7863F0]Track 5 accurately ripped (confidence 13) [A0F28486]Track 6 accurately ripped (confidence 13) [FE0D6209]Track 7 accurately ripped (confidence 13) [1B57EDD1]Track 8 accurately ripped (confidence 13) [8DD81DE4]Track 9 accurately ripped (confidence 13) [31135088]Track 10 accurately ripped (confidence 13) [48D062DE]Track 11 accurately ripped (confidence 13) [AC99E17C]Track 12 accurately ripped (confidence 13) [CB497624]Track 13 accurately ripped (confidence 13) [94B4DDC9]Track 14 accurately ripped (confidence 13) [74A7EAB8]Track 15 accurately ripped (confidence 13) [2FD81FAE]Track 16 accurately ripped (confidence 13) [41813778]Track 17 accurately ripped (confidence 13) [7AB330D3]Track 18 accurately ripped (confidence 13) [51B46E1C]Track 19 accurately ripped (confidence 13) [CC606E90]Track 20 accurately ripped (confidence 13) [A874CCD9]Track 21 accurately ripped (confidence 13) [27848651]Track 22 accurately ripped (confidence 13) [CEF34456]Track 23 accurately ripped (confidence 13) [CCFEF7C9]

All tracks accurately ripped

End of status report
 
REM GENRE SoundtrackREM DATE 1985REM DISCID 5A106C17REM COMMENT "ExactAudioCopy v0.99pb5"PERFORMER "Andrew Powell"TITLE "Ladyhawke"FILE "Andrew Powell - Ladyhawke.flac" WAVE TRACK 01 AUDIO TITLE "Main Title" PERFORMER "Andrew Powell" INDEX 01 00:00:00 TRACK 02 AUDIO TITLE "Phillippe's Escape" PERFORMER "Andrew Powell" INDEX 00 02:58:63 INDEX 01 03:00:20 TRACK 03 AUDIO TITLE "The Search for Phillippe" PERFORMER "Andrew Powell" INDEX 00 04:40:15 INDEX 01 04:43:20 TRACK 04 AUDIO TITLE "Tavern Fight (Phillippe)" PERFORMER "Andrew Powell" INDEX 00 08:08:10 INDEX 01 08:09:45 TRACK 05 AUDIO TITLE "Tavern Fight (Navarre)" PERFORMER "Andrew Powell" INDEX 00 10:17:13 INDEX 01 10:19:25 TRACK 06 AUDIO TITLE "Pitou's Woods" PERFORMER "Andrew Powell" INDEX 00 12:57:15 INDEX 01 12:58:47 TRACK 07 AUDIO TITLE "Phillippe Describes Isabeau" PERFORMER "Andrew Powell" INDEX 00 17:02:05 INDEX 01 17:03:17 TRACK 08 AUDIO TITLE "Bishop's Procession" PERFORMER "Andrew Powell" INDEX 00 18:14:40 INDEX 01 18:16:10 TRACK 09 AUDIO TITLE "Wedding Music" PERFORMER "Andrew Powell" INDEX 00 21:05:70 INDEX 01 21:05:72 TRACK 10 AUDIO TITLE "Navarre's Ambush" PERFORMER "Andrew Powell" INDEX 00 22:46:30 INDEX 01 22:47:15 TRACK 11 AUDIO TITLE "Imperius Removes Arrow" PERFORMER "Andrew Powell" INDEX 00 27:40:18 INDEX 01 27:40:35 TRACK 12 AUDIO TITLE "Chase - Fall - Transformation" PERFORMER "Andrew Powell" INDEX 00 29:13:58 INDEX 01 29:15:22 TRACK 13 AUDIO TITLE "Cezar's Woods" PERFORMER "Andrew Powell" INDEX 00 31:21:13 INDEX 01 31:22:42 TRACK 14 AUDIO TITLE "She Was Sad at First" PERFORMER "Andrew Powell" INDEX 00 36:51:13 INDEX 01 36:52:72 TRACK 15 AUDIO TITLE "Navarre Returns to Aquila" PERFORMER "Andrew Powell" INDEX 00 38:59:25 INDEX 01 38:59:55 TRACK 16 AUDIO TITLE "Turret Chase - The Fall [Film Version]" PERFORMER "Andrew Powell" INDEX 00 40:35:58 INDEX 01 40:36:62 TRACK 17 AUDIO TITLE "Wolf Trapped in Ice" PERFORMER "Andrew Powell" INDEX 00 43:22:53 INDEX 01 43:22:55 TRACK 18 AUDIO TITLE "Navarre and Isabeau's Dual Transformation" PERFORMER "Andrew Powell" INDEX 00 45:56:40 INDEX 01 45:57:65 TRACK 19 AUDIO TITLE "Navarre and Marquet Duel" PERFORMER "Andrew Powell" INDEX 00 49:20:65 INDEX 01 49:21:60 TRACK 20 AUDIO TITLE "Marquet's Death" PERFORMER "Andrew Powell" INDEX 00 53:43:73 INDEX 01 53:44:60 TRACK 21 AUDIO TITLE "Bishop's Death" PERFORMER "Andrew Powell" INDEX 00 55:43:20 INDEX 01 55:45:10 TRACK 22 AUDIO TITLE "Final Reunion - End Title" PERFORMER "Andrew Powell" INDEX 00 58:11:18 INDEX 01 58:12:45 TRACK 23 AUDIO TITLE "Ladyhawke Theme [Single Version]" PERFORMER "Andrew Powell" INDEX 00 66:25:70 INDEX 01 66:28:45


Трекер:  [ 30-Янв-2011 07:47 ]

  

Скачать .torrent

Размер .torrent файла 16 KB


Размер: 399 MB
Хэш (hash) релиза: 1c87381c369cdb7e5edb7eaedbc832bab2599372

Торренты, похожие на Леди-ястреб Ladyhawke скачать торрент

Форум Название Автор Размер S L Добавлен
Саундтреки к фильмам и мультфильмам (mp3) ·· (Score) Леди-ястреб / LadyHawke (Andrew Powell, Alan Parsons) - 2003 (1985), MP3 (tracks) 320 kbps Galfimbul 616939986588 MB 0 0 1424606174

14:56

22-Фев-15

bot

Топик был перенесен в форум Саундтреки к фильмам и мультфильмам (lossless)

Перенес FRANKS

Хотите добавить комментарий к записи скачать торрент Леди-ястреб Ladyhawke

!Обратная связь