Скачать через торрент музыку На дне бездны In Too Deep - 1999 бесплатно без регистрации torrent

Если у вас наблюдаются проблемы со скриншотами, переходом по ссылками, скачиванием торрентов - проблемы в блокировщике рекламы AdBlock. #хорошегоДня!


Статистика раздачи
Размер:  379 MB   |    Зарегистрирован:  6 лет 2 месяца   |    .torrent скачан:  50 раз   |   
Раздают:  1  
   
Загрузка...
 
Автор Сообщение

Galfimbul

avatar Galfimbul


На дне бездны / In Too Deep

Жанр: Soundtrack
Год выпуска диска: 1999
Производитель диска: USA
Аудио кодек: FLAC
Тип рипа: tracks+.cue
Битрейт аудио: lossless
Продолжительность: 01:00:59

01 - NAS & Nature - In Too Deep
02 - Method Man & Redman - Tear If Off
03 - Ali Vegas - The Specialist
04 - R Kelly - Use To Me Spending
05 - 50 Cent - How To Rob
06 - Trick Daddy - Thug Money
07 - Jagged Edge - Keys To The Range
08 - Capone & Noreaga - Bleeding From The Mouth
09 - 50 Cent - Rowdy Rowdy
10 - Mobb Deep - Where Ya Heart At
11 - The Product G&B - Bust A Nut
12 - Dave Hollister - Give Me A Reason
13 - Jill Scott - Dreamin'
14 - Imajin - Somethin' About Love
15 - Mobb Deep - Quiet Storm (Remix)

Источник: what.cd
 
Exact Audio Copy V0.99 prebeta 5 from 4. May 2009

EAC extraction logfile from 4. December 2009, 21:53

Various / In Too Deep (OMPST)

Used drive : ATAPI iHAP322 8 Adapter: 4 ID: 1

Read mode : SecureUtilize accurate stream : YesDefeat audio cache : YesMake use of C2 pointers : No

Read offset correction : 6Overread into Lead-In and Lead-Out : NoFill up missing offset samples with silence : YesDelete leading and trailing silent blocks : NoNull samples used in CRC calculations : YesUsed interface : Native Win32 interface for Win NT & 2000Gap handling : Appended to previous track

Used output format : User Defined EncoderSelected bitrate : 320 kBit/sQuality : HighAdd ID3 tag : NoCommand line compressor : C:\Program Files\Exact Audio Copy\Flac\flac.exeAdditional command line options : -V -8 -T "artist=%a" -T "title=%t" -T "album=%g" -T "date=%y" -T "tracknumber=%n" -T "genre=%m" %s

TOC of the extracted CD

Track | Start | Length | Start sector | End sector --------------------------------------------------------- 1 | 0:00.00 | 3:42.35 | 0 | 16684 2 | 3:42.35 | 4:12.65 | 16685 | 35649 3 | 7:55.25 | 3:32.02 | 35650 | 51551 4 | 11:27.27 | 5:03.03 | 51552 | 74279 5 | 16:30.30 | 4:25.67 | 74280 | 94221 6 | 20:56.22 | 4:29.70 | 94222 | 114466 7 | 25:26.17 | 3:47.25 | 114467 | 131516 8 | 29:13.42 | 3:25.10 | 131517 | 146901 9 | 32:38.52 | 3:39.73 | 146902 | 163399 10 | 36:18.50 | 4:27.60 | 163400 | 183484 11 | 40:46.35 | 3:56.50 | 183485 | 201234 12 | 44:43.10 | 3:58.27 | 201235 | 219111 13 | 48:41.37 | 4:05.10 | 219112 | 237496 14 | 52:46.47 | 4:20.53 | 237497 | 257049 15 | 57:07.25 | 4:04.45 | 257050 | 275394

Track 1

Filename C:\00 Latest EAC Rip\01 NAS & Nature - In Too Deep.wav

Pre-gap length 0:00:02.00

Peak level 98.8 % Track quality 99.9 % Test CRC 8591DAB0 Copy CRC 8591DAB0 Track not present in AccurateRip database Copy OK

Track 2

Filename C:\00 Latest EAC Rip\02 Method Man & Redman - Tear If Off.wav

Peak level 98.8 % Track quality 100.0 % Test CRC EFE79043 Copy CRC EFE79043 Track not present in AccurateRip database Copy OK

Track 3

Filename C:\00 Latest EAC Rip\03 Ali Vegas - The Specialist.wav

Peak level 98.8 % Track quality 100.0 % Test CRC 23A8D7CC Copy CRC 23A8D7CC Track not present in AccurateRip database Copy OK

Track 4

Filename C:\00 Latest EAC Rip\04 R Kelly - Use To Me Spending.wav

Pre-gap length 0:00:00.93

Peak level 95.4 % Track quality 100.0 % Test CRC 38ED28EC Copy CRC 38ED28EC Track not present in AccurateRip database Copy OK

Track 5

Filename C:\00 Latest EAC Rip\05 50 Cent - How To Rob.wav

Pre-gap length 0:00:02.00

Peak level 95.5 % Track quality 100.0 % Test CRC 4A6D8C2C Copy CRC 4A6D8C2C Track not present in AccurateRip database Copy OK

Track 6

Filename C:\00 Latest EAC Rip\06 Trick Daddy - Thug Money.wav

Pre-gap length 0:00:01.06

Peak level 98.8 % Track quality 100.0 % Test CRC 36F88086 Copy CRC 36F88086 Track not present in AccurateRip database Copy OK

Track 7

Filename C:\00 Latest EAC Rip\07 Jagged Edge - Keys To The Range.wav

Pre-gap length 0:00:00.62

Peak level 98.8 % Track quality 100.0 % Test CRC 53337A20 Copy CRC 53337A20 Track not present in AccurateRip database Copy OK

Track 8

Filename C:\00 Latest EAC Rip\08 Capone & Noreaga - Bleeding From The Mouth.wav

Pre-gap length 0:00:01.16

Peak level 98.8 % Track quality 100.0 % Test CRC 37E99AB8 Copy CRC 37E99AB8 Track not present in AccurateRip database Copy OK

Track 9

Filename C:\00 Latest EAC Rip\09 50 Cent - Rowdy Rowdy.wav

Pre-gap length 0:00:01.00

Peak level 98.8 % Track quality 100.0 % Test CRC 0456FC5B Copy CRC 0456FC5B Track not present in AccurateRip database Copy OK

Track 10

Filename C:\00 Latest EAC Rip\10 Mobb Deep - Where Ya Heart At.wav

Peak level 98.8 % Track quality 100.0 % Test CRC 56C07B8D Copy CRC 56C07B8D Track not present in AccurateRip database Copy OK

Track 11

Filename C:\00 Latest EAC Rip\11 The Product G&B - Bust A Nut.wav

Pre-gap length 0:00:01.00

Peak level 98.8 % Track quality 100.0 % Test CRC A518CA7F Copy CRC A518CA7F Track not present in AccurateRip database Copy OK

Track 12

Filename C:\00 Latest EAC Rip\12 Dave Hollister - Give Me A Reason.wav

Pre-gap length 0:00:01.44

Peak level 88.1 % Track quality 100.0 % Test CRC FA8CD286 Copy CRC FA8CD286 Track not present in AccurateRip database Copy OK

Track 13

Filename C:\00 Latest EAC Rip\13 Jill Scott - Dreamin'.wav

Pre-gap length 0:00:01.62

Peak level 98.8 % Track quality 100.0 % Test CRC 2BF68751 Copy CRC 2BF68751 Track not present in AccurateRip database Copy OK

Track 14

Filename C:\00 Latest EAC Rip\14 Imajin - Somethin' About Love.wav

Pre-gap length 0:00:01.29

Peak level 98.8 % Track quality 100.0 % Test CRC 9964A0E2 Copy CRC 9964A0E2 Track not present in AccurateRip database Copy OK

Track 15

Filename C:\00 Latest EAC Rip\15 Mobb Deep - Quiet Storm (Remix).wav

Peak level 98.8 % Track quality 100.0 % Test CRC 95E2C637 Copy CRC 95E2C637 Track not present in AccurateRip database Copy OK

None of the tracks are present in the AccurateRip database

No errors occurred

End of status report
 
REM GENRE SoundtrackREM DATE 1999REM DISCID EF0E570FREM COMMENT "ExactAudioCopy v0.99pb5"FILE "01 NAS & Nature - In Too Deep.wav" WAVE TRACK 01 AUDIO INDEX 01 00:00:00FILE "02 Method Man & Redman - Tear If Off.wav" WAVE TRACK 02 AUDIO INDEX 01 00:00:00FILE "03 Ali Vegas - The Specialist.wav" WAVE TRACK 03 AUDIO INDEX 01 00:00:00 TRACK 04 AUDIO INDEX 00 03:31:07FILE "04 R Kelly - Use To Me Spending.wav" WAVE INDEX 01 00:00:00 TRACK 05 AUDIO INDEX 00 05:01:03FILE "05 50 Cent - How To Rob.wav" WAVE INDEX 01 00:00:00 TRACK 06 AUDIO INDEX 00 04:24:62FILE "06 Trick Daddy - Thug Money.wav" WAVE INDEX 01 00:00:00 TRACK 07 AUDIO INDEX 00 04:29:23FILE "07 Jagged Edge - Keys To The Range.wav" WAVE INDEX 01 00:00:00 TRACK 08 AUDIO INDEX 00 03:46:13FILE "08 Capone & Noreaga - Bleeding From The Mouth.wav" WAVE INDEX 01 00:00:00 TRACK 09 AUDIO INDEX 00 03:24:10FILE "09 50 Cent - Rowdy Rowdy.wav" WAVE INDEX 01 00:00:00FILE "10 Mobb Deep - Where Ya Heart At.wav" WAVE TRACK 10 AUDIO INDEX 01 00:00:00 TRACK 11 AUDIO INDEX 00 04:26:60FILE "11 The Product G&B - Bust A Nut.wav" WAVE INDEX 01 00:00:00 TRACK 12 AUDIO INDEX 00 03:55:17FILE "12 Dave Hollister - Give Me A Reason.wav" WAVE INDEX 01 00:00:00 TRACK 13 AUDIO INDEX 00 03:56:55FILE "13 Jill Scott - Dreamin'.wav" WAVE INDEX 01 00:00:00 TRACK 14 AUDIO INDEX 00 04:03:63FILE "14 Imajin - Somethin' About Love.wav" WAVE INDEX 01 00:00:00FILE "15 Mobb Deep - Quiet Storm (Remix).wav" WAVE TRACK 15 AUDIO INDEX 01 00:00:00


Трекер:  [ 08-Июл-2011 18:15 ]

  

Скачать .torrent

Размер .torrent файла 16 KB


Размер: 379 MB
Хэш (hash) релиза: 540c7e2595a8ea7f71e247159c60f2464c3bdcbc

Еще никто не оставлял запись к записи скачать торрент На дне бездны In Too Deep - 1999 . Будь первым!

!Обратная связь